<?xml version="1.0" standalone="no"?>
<!DOCTYPE svg PUBLIC "-//W3C//DTD SVG 1.1//EN" "http://www.w3.org/Graphics/SVG/1.1/DTD/svg11.dtd" >
<svg xmlns="http://www.w3.org/2000/svg">
<metadata>
This is a custom SVG webfont generated by Font Squirrel.
Copyright   : Generated by RoboFog
Foundry     : Generated by RoboFog
</metadata>
<defs>
<font id="webfontjY0vdPQV" horiz-adv-x="1234" >
<font-face units-per-em="2048" ascent="1434" descent="-614" />
<missing-glyph horiz-adv-x="348" />
<glyph unicode=" "  horiz-adv-x="348" />
<glyph unicode="&#x09;" horiz-adv-x="348" />
<glyph unicode="&#xa0;" horiz-adv-x="348" />
<glyph unicode="!" horiz-adv-x="575" d="M276 362q-31 0 -39 12.5t-4 45.5l144 905h182l-248 -922q-10 -41 -35 -41zM199 -12q-98 0 -99 69q0 74 33 107q27 27 76 26q98 0 98 -69q0 -74 -33 -107q-26 -26 -75 -26z" />
<glyph unicode="&#x22;" horiz-adv-x="800" d="M635 799q-31 0 -41 11t-6 48l49 467h192l-151 -475q-14 -51 -43 -51zM330 799q-31 0 -41 11t-6 48l49 467h192l-151 -475q-14 -51 -43 -51z" />
<glyph unicode="#" horiz-adv-x="1349" d="M340 -2q0 -10 -35 -6t-52 36.5t7 131.5l62 198h-273q2 10 8 33l15 72l4 14h280l115 371h-270q2 10 8 33l14 71l4 15h279l110 360q0 10 35 6t52.5 -36.5t-7.5 -131.5l-61 -198h338l110 360q0 10 35 6t52.5 -36.5t-7.5 -131.5l-61 -198h270q-2 -10 -8 -33l-14 -72l-4 -14 h-281l-113 -371h271q-2 -10 -9 -33l-14 -71l-4 -15h-281l-108 -360q0 -10 -35 -6t-52.5 36.5t7.5 131.5l61 198h-337zM481 473h346l115 379h-346z" />
<glyph unicode="$" horiz-adv-x="1161" d="M360 -201l41 191q-168 35 -268 135q-76 76 -76 147q0 31 21.5 51.5t42 25.5t22.5 -1q78 -190 289 -239l111 514q-145 63 -225 141t-80 219q0 158 121.5 262.5t322.5 104.5h12l37 170h123l-39 -181q160 -29 252 -120q66 -66 66 -136q0 -31 -20.5 -50t-41 -24t-22.5 1 q-74 172 -267 209l-106 -502q82 -35 128 -58.5t102.5 -66.5t82 -101.5t25.5 -134.5q0 -174 -122 -277.5t-341 -103.5h-29l-39 -176h-123zM559 96q156 0 234.5 64.5t78.5 183.5q0 84 -57 135t-174 103l-102 -486h20zM578 760l100 469h-4q-129 0 -212 -66.5t-83 -165.5 q0 -86 50.5 -138t148.5 -99z" />
<glyph unicode="%" horiz-adv-x="1568" d="M475 711q-119 0 -198.5 76.5t-79.5 203.5q0 143 97 249t243 106q119 0 198.5 -77t79.5 -204q0 -143 -97.5 -248.5t-242.5 -105.5zM141 -18q-4 -4 -17 1t-25.5 19t-12.5 35q0 43 74 110l1343 1209q4 4 17.5 -1t26 -19.5t12.5 -35.5q0 -43 -74 -110zM1108 -8 q-119 0 -199 76.5t-80 203.5q0 143 97.5 249t242.5 106q119 0 199 -77t80 -204q0 -143 -97.5 -248.5t-242.5 -105.5zM483 815q92 0 155.5 73t63.5 171q0 78 -50 130t-124 52q-92 0 -155.5 -72.5t-63.5 -171.5q0 -78 50 -130t124 -52zM1116 96q92 0 155.5 73t63.5 171 q0 78 -50 130t-124 52q-92 0 -155.5 -72.5t-63.5 -170.5q0 -78 50 -130.5t124 -52.5z" />
<glyph unicode="&#x26;" horiz-adv-x="1402" d="M504 -25q-201 0 -316.5 101.5t-115.5 265.5q0 172 109.5 275.5t316.5 154.5q-66 106 -66 221q0 150 103.5 253.5t261.5 103.5q131 0 214 -78t83 -205q0 -281 -394 -358l293 -379q156 188 191 471h125q-35 -330 -244 -561l8 -13q59 -76 105.5 -107.5t113.5 -31.5 q2 0 3 -10t-2 -23.5t-10 -28t-26.5 -24.5t-48.5 -10q-70 0 -114.5 32.5t-106.5 112.5l-12 15q-203 -177 -471 -177zM633 799q178 35 256 90t78 176q0 78 -51.5 124t-131.5 46q-98 0 -158.5 -69.5t-60.5 -161.5q0 -109 68 -205zM518 94q225 0 389 146l-346 442 q-356 -78 -356 -336q0 -109 79.5 -180.5t233.5 -71.5z" />
<glyph unicode="'" horiz-adv-x="497" d="M330 799q-31 0 -41 11t-6 48l49 467h194l-153 -475q-14 -51 -43 -51z" />
<glyph unicode="(" horiz-adv-x="788" d="M508 -410q-96 0 -199 103q-195 195 -194 553q0 246 94 484.5t262 406.5q195 195 377 194q43 0 59.5 -25.5t8 -52t-24.5 -34.5q-174 -10 -332 -168q-147 -147 -226 -365.5t-79 -439.5q0 -303 162 -465q63 -63 147 -88q8 -2 12.5 -27.5t-11 -50.5t-56.5 -25z" />
<glyph unicode=")" horiz-adv-x="788" d="M-66 -408q-43 0 -59 26t-8 52.5t24 34.5q174 10 332 168q147 147 226 365.5t79 439.5q0 303 -161 465q-63 63 -148 88q-8 2 -12 27.5t11 50t56 24.5q96 0 199 -102q195 -195 195 -553q0 -246 -94.5 -484.5t-262.5 -406.5q-195 -195 -377 -195z" />
<glyph unicode="*" horiz-adv-x="841" d="M315 721q-20 20 4 59l125 187l-208 80q-37 14 -37 36q0 72 67 54l217 -60l9 221q2 31 12 41.5t34.5 10.5t35 -10.5t12.5 -41.5l8 -221l217 60q68 18 68 -54q0 -23 -37 -36l-209 -80l125 -187q25 -39 4 -59q-45 -43 -82 4l-141 176l-142 -176q-37 -47 -82 -4z" />
<glyph unicode="+" horiz-adv-x="1173" d="M500 70q-61 0 -49 63l75 356h-325q-59 0 -60 33q0 47 25 72q14 14 49 14h336l72 334q14 63 59 64h16q61 0 50 -64l-72 -334h325q59 0 60 -33q0 -47 -25 -71q-14 -14 -49 -15h-336l-76 -356q-14 -63 -59 -63h-16z" />
<glyph unicode="," horiz-adv-x="497" d="M-23 -270q-10 -12 -39.5 6t-21.5 35l225 430q6 2 35 1t60.5 -19.5t31.5 -49.5q0 -43 -39 -92z" />
<glyph unicode="-" horiz-adv-x="819" d="M135 434v123h555v-123h-555z" />
<glyph unicode="." horiz-adv-x="497" d="M160 -12q-98 0 -99 69q0 74 33 107q27 27 76 26q98 0 98 -69q0 -74 -32 -107q-27 -26 -76 -26z" />
<glyph unicode="/" horiz-adv-x="731" d="M-18 -395h-152l895 1720h152z" />
<glyph unicode="0" horiz-adv-x="1357" d="M651 -25q-231 0 -358 133.5t-127 348.5q0 137 51 346q29 119 70 209t106.5 170t163.5 123t225 43q231 0 358.5 -133.5t127.5 -348.5q0 -137 -51 -346q-29 -119 -70 -209t-106.5 -170t-164 -123t-225.5 -43zM651 94q100 0 177 36t125 103.5t78 137t52 166.5q45 186 45 329 q0 162 -94 262.5t-252 100.5q-100 0 -177 -36t-125 -103.5t-77.5 -137t-52.5 -166.5q-45 -186 -45 -329q0 -162 94 -262.5t252 -100.5z" />
<glyph unicode="1" horiz-adv-x="780" d="M279 0l229 1094q-61 -61 -150 -62q-82 0 -116 35q-25 25 -25 63q0 27 15.5 50.5t29.5 35t17 9.5q35 -51 116 -51q63 0 113.5 46t69.5 113h57q66 0 49 -71l-268 -1262h-137z" />
<glyph unicode="2" horiz-adv-x="1134" d="M279 332q-78 -78 -91 -205h770l-10 -51l-16 -76h-809q-29 0 -51.5 29.5t-22.5 64.5q0 203 133 336q70 70 164 117t236 98q225 82 311 148.5t86 199.5q0 100 -80 165t-217 65q-238 0 -350 -240q-2 -6 -22.5 -1t-40 25.5t-19.5 55.5q0 70 78 147q139 139 362 140 q199 0 315.5 -96.5t116.5 -260.5q0 -100 -32.5 -175t-106.5 -130t-149.5 -91t-206.5 -83q-139 -49 -216 -88t-132 -94z" />
<glyph unicode="3" horiz-adv-x="1159" d="M496 -25q-252 0 -381 129q-84 84 -84 166q0 43 23.5 69t46 31t24.5 -1q25 -131 122 -202t257 -71q172 0 262 87t90 216q0 111 -81 176.5t-230 65.5h-168q2 10 8 33l14 71l4 15h168q381 0 381 260q0 94 -80.5 152.5t-201.5 58.5q-229 0 -359 -193q-2 -4 -19.5 3.5 t-33.5 25.5t-16 39q0 49 55 104q135 139 379 140q184 0 304 -84t120 -242q0 -127 -78 -222t-229 -118q104 -35 157.5 -109.5t53.5 -173.5q0 -76 -28 -148.5t-85 -136t-159.5 -102.5t-235.5 -39z" />
<glyph unicode="4" horiz-adv-x="1239" d="M678 0l78 377h-621q-4 0 -15 14.5t-21.5 39t-10.5 44.5q0 59 70 129l669 649q82 80 150 80q117 0 96 -100l-155 -729h245q-2 -10 -8 -35l-16 -78l-2 -14h-246l-80 -377h-133zM225 502h561l148 696z" />
<glyph unicode="5" horiz-adv-x="1150" d="M440 1198l-90 -424q111 43 234 43q205 0 326.5 -101.5t121.5 -266.5q0 -211 -140 -342.5t-378 -131.5q-262 0 -391 138q-66 68 -66 141q0 31 21.5 51.5t43 27.5t23.5 1q33 -109 128.5 -172.5t244.5 -63.5q166 0 267.5 94.5t101.5 247.5q0 254 -314 254q-170 0 -299 -71 q-86 20 -65 104l106 514q16 84 97 84h741q-4 -20 -10 -45l-17 -82h-686z" />
<glyph unicode="6" horiz-adv-x="1247" d="M627 -25q-209 0 -335 123t-126 351q0 172 67.5 399t194.5 354q76 76 161 112t222 36q203 0 317 -115q59 -61 60 -119q0 -31 -19.5 -52.5t-39 -28.5t-21.5 -1q-90 197 -311 197q-350 0 -465 -524q152 121 358 120q193 0 310.5 -97t117.5 -271q0 -193 -139 -338.5 t-352 -145.5zM629 98q164 0 261 100.5t97 252.5q0 121 -81 191.5t-232 70.5q-205 0 -367 -144q-10 -57 -10 -125q0 -166 86 -256t246 -90z" />
<glyph unicode="7" horiz-adv-x="1130" d="M291 -8q-6 -6 -40 7t-45 50t50 123l782 1026h-802q2 12 10 45l16 82h844q6 0 20.5 -13.5t29.5 -41t15 -56.5q0 -47 -47 -108z" />
<glyph unicode="8" d="M588 -25q-221 0 -356.5 96.5t-135.5 258.5q0 131 95.5 231.5t257.5 136.5q-178 74 -179 256q0 164 134.5 280t343.5 116q188 0 312 -90.5t124 -237.5q0 -123 -82 -221.5t-232 -132.5q215 -88 215 -287q0 -172 -137 -289t-360 -117zM721 741q154 0 238.5 73t84.5 196 q0 102 -87 162.5t-228 60.5q-147 0 -233 -76t-86 -196q0 -102 84 -161t227 -59zM592 92q164 0 259 81t95 208q0 106 -98 173t-266 67q-147 0 -246.5 -79t-99.5 -204q0 -111 97 -178.5t259 -67.5z" />
<glyph unicode="9" horiz-adv-x="1247" d="M512 -25q-203 0 -317 115q-59 59 -60 119q0 31 19.5 52.5t39 28.5t21.5 1q90 -197 311 -197q344 0 461 504q-156 -121 -356.5 -121t-314 98.5t-113.5 280.5q0 201 139 347.5t354 146.5q209 0 335 -123t126 -350q0 -172 -67.5 -399.5t-194.5 -354.5q-76 -76 -161 -112 t-222 -36zM647 592q203 0 365 143q14 78 14 146q0 166 -86 256t-246 90q-166 0 -263 -102.5t-97 -260.5q0 -129 77.5 -200.5t235.5 -71.5z" />
<glyph unicode=":" horiz-adv-x="559" d="M338 684q-98 0 -98 70q0 74 32 106q27 27 76 27q98 0 98 -70q0 -74 -32 -106q-27 -27 -76 -27zM190 -12q-98 0 -98 69q0 74 33 107q27 27 76 26q98 0 98 -69q0 -74 -33 -107q-27 -26 -76 -26z" />
<glyph unicode=";" horiz-adv-x="559" d="M338 684q-98 0 -98 70q0 74 32 106q27 27 76 27q98 0 98 -70q0 -74 -32 -106q-27 -27 -76 -27zM8 -270q-10 -12 -39.5 6t-21.5 35l225 430q6 2 35 1t60.5 -19.5t31.5 -49.5q0 -43 -39 -92z" />
<glyph unicode="&#x3c;" horiz-adv-x="1028" d="M782 102l-592 353q-49 31 -49 82q0 74 86 114l715 344q4 2 13.5 -6t19.5 -24.5t10 -34.5q4 -51 -88 -96l-618 -291l473 -275q88 -49 79 -104q-2 -20 -13 -35.5t-21.5 -23t-14.5 -3.5z" />
<glyph unicode="=" horiz-adv-x="1173" d="M272 709q-63 0 -63 32q0 51 27 78q14 14 51 15h737q63 0 63 -33q0 -51 -26 -78q-14 -14 -51 -14h-738zM172 244q-63 0 -63 32q0 51 26 78q14 14 51 15h738q63 0 63 -33q0 -51 -26 -78q-14 -14 -52 -14h-737z" />
<glyph unicode="&#x3e;" horiz-adv-x="1028" d="M113 102q-4 -2 -13.5 6.5t-19.5 25t-10 34.5q-4 51 88 96l618 291l-473 274q-88 49 -80 105q2 20 13.5 35.5t21.5 22.5t14 3l592 -352q49 -31 49 -82q0 -74 -86 -115z" />
<glyph unicode="?" horiz-adv-x="1017" d="M340 362l18 87q23 109 80.5 167t184.5 103q143 49 208.5 106.5t65.5 163.5q0 100 -73.5 169t-200.5 69q-113 0 -193 -68.5t-123 -181.5q-2 -6 -23.5 0t-43 25.5t-21.5 48.5q0 82 86 168q131 131 326 131q182 0 292.5 -102.5t110.5 -258.5q0 -260 -323 -364 q-117 -39 -162 -78t-62 -117l-16 -68h-131zM373 -12q-98 0 -99 69q0 74 33 107q27 27 76 26q98 0 98 -69q0 -74 -32 -107q-27 -26 -76 -26z" />
<glyph unicode="@" horiz-adv-x="1597" d="M827 969q70 0 123.5 -32t75.5 -85l23 102h129l-78 -368q-33 -152 98 -152q104 0 165.5 96.5t61.5 264.5q0 201 -146 329.5t-376 128.5q-260 0 -444.5 -195.5t-184.5 -473.5q0 -225 153 -367.5t392 -142.5q180 0 316 88q39 25 69 24q16 0 31.5 -15t23 -31.5t1.5 -20.5 q-74 -59 -195 -101.5t-256 -42.5q-289 0 -464 164t-175 436q0 324 216 549.5t527 225.5q279 0 447 -150.5t168 -400.5q0 -217 -94.5 -341t-251.5 -124q-186 0 -213 137q-78 -125 -236 -125q-102 0 -168.5 65.5t-66.5 180.5q0 145 95 261t234 116zM768 453q76 0 137.5 56 t77.5 136l18 88q-37 129 -163 129q-94 0 -152.5 -78.5t-58.5 -177.5q0 -70 41 -111.5t100 -41.5z" />
<glyph unicode="A" horiz-adv-x="1316" d="M111 0h-162l768 1292q29 47 88 47q84 0 96 -61l256 -1278h-145l-80 432h-574zM430 555h477l-116 625z" />
<glyph unicode="B" horiz-adv-x="1304" d="M88 0l264 1241q12 84 97 84h376q195 0 296.5 -77t101.5 -222q0 -266 -281 -350q115 -31 173.5 -102.5t58.5 -165.5q0 -182 -123 -295t-396 -113h-567zM254 125h412q193 0 278.5 69.5t85.5 213.5q0 96 -73.5 149t-215.5 53h-383zM383 733h369q150 0 238.5 77t88.5 198 q-6 193 -268 192h-328z" />
<glyph unicode="C" horiz-adv-x="1400" d="M758 -25q-272 0 -435 155t-163 417q0 330 213 566.5t524 236.5q250 0 395 -146q86 -86 86 -164q0 -33 -20.5 -54t-42 -26.5t-29.5 1.5q-98 268 -395 268q-248 0 -416 -194.5t-168 -467.5q0 -215 124 -342t325 -127q283 0 424 215q2 4 19.5 -3t33.5 -25.5t16 -44.5 q0 -49 -59 -109q-66 -66 -182.5 -111t-249.5 -45z" />
<glyph unicode="D" horiz-adv-x="1421" d="M88 0l264 1241q12 84 97 84h225q309 0 482 -144.5t173 -406.5q0 -338 -214 -556t-611 -218h-416zM254 123h270q324 0 491 179t167 452q0 211 -136.5 329.5t-381.5 118.5h-181z" />
<glyph unicode="E" horiz-adv-x="1249" d="M88 0l264 1241q16 84 97 84h849q-2 -10 -6 -35q-12 -45 -16 -78l-4 -14h-789l-98 -457h641q-2 -10 -8 -32l-17 -76l-2 -15h-641l-104 -491h799q-2 -10 -9 -35l-16 -78l-2 -14h-938z" />
<glyph unicode="F" horiz-adv-x="1161" d="M88 0l264 1241q12 84 97 84h794q-2 -10 -6 -35l-8 -40q-6 -30 -8 -38l-4 -14h-734l-106 -500h567l-6 -32l-8 -39t-8 -37l-4 -15h-568l-125 -575h-137z" />
<glyph unicode="G" horiz-adv-x="1515" d="M754 -25q-268 0 -431 150.5t-163 415.5q0 211 94 396t267 299t386 114q268 0 422 -154q74 -74 74 -141q0 -39 -23.5 -61.5t-46 -25.5t-24.5 1q-39 113 -148.5 185.5t-255.5 72.5q-258 0 -428 -198t-170 -474q0 -219 122 -339t327 -120q203 0 327 125q61 61 96 129t62 201 h-438q2 10 8 33q4 12 9 41.5t7 36.5l2 14h467q45 0 66 -25q14 -16 14 -41q0 -12 -4 -26l-125 -586q0 -6 -28 -6q-73 0 -73 81q0 26 7 60l4 19q-53 -76 -158.5 -126.5t-244.5 -50.5z" />
<glyph unicode="H" horiz-adv-x="1435" d="M90 0l268 1270q14 63 70 63h18q52 0 53 -46q0 -11 -3 -25l-113 -535h772l115 543q14 63 69 63h19q52 0 52 -46q0 -11 -3 -25l-268 -1262h-138l127 600h-772l-129 -600h-137z" />
<glyph unicode="I" horiz-adv-x="565" d="M113 0l282 1325h137l-282 -1325h-137z" />
<glyph unicode="J" horiz-adv-x="964" d="M358 -25q-164 0 -262 99q-49 49 -49 90q0 31 19.5 52.5t39 29.5t21.5 2q31 -68 94.5 -110t138.5 -42q113 0 176.5 70t98.5 231l199 928h137l-201 -946q-45 -207 -144.5 -305.5t-267.5 -98.5z" />
<glyph unicode="K" horiz-adv-x="1187" d="M956 -10q-51 0 -98 42t-133 158l-354 482l-146 -672h-137l270 1270q14 63 70 63h18q52 0 53 -46q0 -11 -3 -25l-117 -553l788 641q1 1 2 0q4 0 15 -4q14 -6 27.5 -19.5t19.5 -32.5q2 -5 1 -10q0 -16 -12 -40q-17 -32 -63 -66l-633 -506l330 -434q70 -94 108.5 -124 t92.5 -34q2 0 3 -9.5t-3 -22.5t-13.5 -26.5t-32 -22.5t-53.5 -9z" />
<glyph unicode="L" horiz-adv-x="1093" d="M88 0l270 1270q14 63 70 63h18q52 0 53 -46q0 -11 -3 -25l-242 -1135h631q63 0 63 -35q0 -47 -26 -78q-12 -14 -54 -14h-780z" />
<glyph unicode="M" horiz-adv-x="1587" d="M88 0l264 1239q20 94 113 94h33q49 0 67.5 -22.5t32.5 -81.5l182 -772l516 772q43 63 70 83.5t72 20.5h37q45 0 65 -28q15 -20 15 -48q0 -11 -3 -22l-264 -1235h-131l250 1174l-514 -762q-57 -82 -129 -82q-53 0 -75.5 23.5t-35.5 72.5l-182 748l-252 -1174h-131z" />
<glyph unicode="N" horiz-adv-x="1452" d="M88 0l264 1239q20 94 99 94h34q31 0 49.5 -16.5t38.5 -56.5l496 -1053l240 1118h129l-267 -1249q-18 -84 -90 -84h-14q-49 0 -86 74l-516 1093l-248 -1159h-129z" />
<glyph unicode="O" horiz-adv-x="1568" d="M750 -23q-268 0 -429 162t-161 412q0 340 223 569.5t510 229.5q268 0 429 -162t161 -412q0 -340 -223 -569.5t-510 -229.5zM764 98q221 0 396 191.5t175 476.5q0 199 -121.5 331t-334.5 132q-221 0 -396.5 -191.5t-175.5 -476.5q0 -199 122 -331t335 -132z" />
<glyph unicode="P" horiz-adv-x="1202" d="M88 0l264 1241q12 84 97 84h303q211 0 325.5 -89t114.5 -253q0 -223 -137 -345t-391 -122h-326l-113 -516h-137zM365 639h325q168 0 263.5 86t95.5 240q0 236 -306 235h-260z" />
<glyph unicode="Q" horiz-adv-x="1593" d="M741 -23q-270 0 -425.5 160t-155.5 414q0 227 106.5 412.5t276.5 286t358 100.5q270 0 426 -160t156 -414q0 -354 -246 -590l12 -14q74 -92 135 -104q0 -4 2.5 -24.5t-16 -44.5t-53.5 -24q-47 0 -79 24t-85 93l-10 14q-187 -129 -402 -129zM756 98q164 0 307 105 l-232 301l99 80l225 -297q180 195 180 479q0 199 -119.5 331t-328.5 132q-225 0 -402.5 -190.5t-177.5 -477.5q0 -199 120 -331t329 -132z" />
<glyph unicode="R" horiz-adv-x="1230" d="M713 557h-23l182 -315q51 -88 89 -121t106 -33q2 0 3 -10t-3 -24.5t-13.5 -29t-32 -24.5t-52.5 -10q-57 0 -105.5 40t-115.5 158l-207 369h-195l-121 -557h-137l264 1241q12 84 97 84h323q215 0 327.5 -83t112.5 -243q0 -207 -134 -324.5t-365 -117.5zM371 676h346 q166 0 258 82t92 227q0 106 -78 161.5t-225 55.5h-281z" />
<glyph unicode="S" horiz-adv-x="1161" d="M551 -25q-268 0 -418 150q-76 76 -76 147q0 31 21.5 51.5t42 25.5t22.5 -1q47 -119 152.5 -185.5t263.5 -66.5q156 0 234.5 64.5t78.5 183.5q0 49 -19 88t-67.5 72t-87.5 51l-116 51q-80 33 -127 58.5t-104.5 69.5t-85 105.5t-27.5 143.5q0 158 121.5 262.5t322.5 104.5 q254 0 385 -131q66 -66 66 -136q0 -31 -20.5 -50t-41 -24t-22.5 1q-92 219 -373 219q-131 0 -214 -65.5t-83 -166.5q0 -55 19.5 -96t67.5 -74.5t88 -54t124 -55.5l100 -44q35 -15 87.5 -49t79 -67t48 -85t21.5 -116q0 -174 -122 -277.5t-341 -103.5z" />
<glyph unicode="T" horiz-adv-x="1265" d="M463 0l254 1198h-408q-63 0 -63 35q0 47 26 78q12 14 54 14h960q63 0 64 -35q0 -47 -27 -78q-12 -14 -53 -14h-414l-256 -1198h-137z" />
<glyph unicode="U" horiz-adv-x="1378" d="M657 -25q-274 0 -400 157q-84 104 -84 270q0 83 22 182l145 686q14 63 70 63h18q52 0 52 -46q0 -11 -3 -25l-145 -689q-18 -86 -18 -155q0 -123 55 -199q86 -119 297 -119q324 0 409 406l162 764q14 63 70 63h16q52 0 52 -46q0 -11 -3 -25l-166 -785q-107 -502 -549 -502 z" />
<glyph unicode="V" horiz-adv-x="1298" d="M489 0l-247 1292q-2 12 30 30q20 11 42 11q14 0 30 -5q39 -11 49 -71l197 -1110l672 1186q3 3 10 3q10 0 30 -5q34 -8 51 -43q4 -9 4 -21q0 -37 -38 -108l-676 -1159h-154z" />
<glyph unicode="W" horiz-adv-x="1921" d="M362 0l-40 1305q0 14 35 26q14 5 29 5l43 -11q36 -18 36 -78l16 -1122l498 958q18 39 41.5 53.5t69.5 14.5q96 0 104 -90l84 -932l534 1200q0 4 14 4q9 0 25 -2q39 -4 56 -37q5 -10 5 -25q0 -37 -28 -108l-532 -1161h-185l-90 1014l-536 -1014h-179z" />
<glyph unicode="X" horiz-adv-x="1241" d="M1006 -25q-66 0 -111 51.5t-98 170.5l-166 370l-559 -592q-1 -1 -3 0q-8 0 -34 13q-33 16 -42 49q-1 4 -1 9q0 33 53 93l524 533l-280 653h147l238 -575l567 600q1 1 3 0q8 0 34 -13q33 -16 42 -49q1 -4 1 -9q0 -33 -53 -93l-533 -541l180 -387q49 -104 84 -136t101 -32 q2 0 3 -12t-3 -28.5t-12.5 -33t-29.5 -29t-52 -12.5z" />
<glyph unicode="Y" horiz-adv-x="1193" d="M424 0l119 557l-318 768h146l260 -647l559 659q2 2 6 2q10 0 34 -11q34 -15 43 -52q1 -4 1 -10q0 -37 -60 -111l-536 -612l-115 -543h-139z" />
<glyph unicode="Z" horiz-adv-x="1224" d="M4 0l23 98l4 27l1036 1073h-719q-78 0 -78 51q0 14 7.5 32.5t14.5 31t9 12.5h973l-21 -98l-6 -27l-1036 -1073h762q78 0 78 -51q0 -14 -7.5 -32.5t-14.5 -31t-9 -12.5h-1016z" />
<glyph unicode="[" horiz-adv-x="731" d="M8 -403l369 1728h387q59 0 59 -33q0 -49 -24 -73q-14 -14 -49 -15h-273l-315 -1487h262q59 0 59 -32q0 -49 -24 -74q-14 -14 -49 -14h-402z" />
<glyph unicode="\" horiz-adv-x="731" d="M381 -395l-162 1720h135l162 -1720h-135z" />
<glyph unicode="]" horiz-adv-x="731" d="M711 1325l-369 -1728h-387q-59 0 -59 32q0 49 24 74q14 14 49 14h273l315 1487h-262q-59 0 -59 33q0 49 24 74q14 14 49 14h402z" />
<glyph unicode="^" horiz-adv-x="1093" d="M422 913q-39 0 -39 35q0 61 137 176q41 35 87 69t73 51.5t31 17.5t23.5 -18.5t49 -50.5t54.5 -63q80 -104 80 -157q0 -59 -50 -60q-25 0 -49 28t-65 97l-60 105l-104 -109q-117 -121 -168 -121z" />
<glyph unicode="_" horiz-adv-x="1021" d="M10 -127q-63 0 -63 35q0 51 24 76q16 16 54 16h755q63 0 64 -35q0 -51 -25 -76q-16 -16 -53 -16h-756z" />
<glyph unicode="`" horiz-adv-x="1093" d="M829.5 1128.5q-6.5 -6.5 -57.5 11t-125 56.5t-131 86q-61 51 -61 100q0 25 20.5 42.5t44.5 17.5q41 0 92 -43q55 -45 109.5 -109.5t84.5 -109.5t23.5 -51.5z" />
<glyph unicode="a" d="M1001 -16q-80 0 -114 50q-25 36 -25 92q0 23 4 50q-66 -98 -165 -149.5t-209 -51.5q-166 0 -279 110t-113 304q0 236 160 423t393 187q119 0 211 -54t137 -140l37 170h131l-163 -768q-8 -35 -8 -59q0 -28 10 -43q18 -28 86 -29q4 0 1 -23.5t-26 -46t-68 -22.5zM508 92 q150 0 270.5 110.5t151.5 264.5l35 162q-82 254 -320 254q-182 0 -295.5 -151.5t-113.5 -340.5q0 -137 78.5 -218t193.5 -81z" />
<glyph unicode="b" horiz-adv-x="1228" d="M598 -25q-123 0 -215 58.5t-143 150.5l-13 -57q-14 -74 -38.5 -104.5t-67.5 -30.5q-12 0 -24.5 4t-19.5 7t-7 5l292 1378h134l-123 -569q143 182 356 182q166 0 283.5 -114.5t117.5 -317.5q0 -233 -151.5 -412.5t-380.5 -179.5zM606 92q178 0 283.5 143.5t105.5 331.5 q0 145 -83 230.5t-199.5 85.5t-218 -67.5t-158.5 -178.5l-39 -184q-6 -34 -6 -66q0 -104 66 -186q87 -109 249 -109z" />
<glyph unicode="c" horiz-adv-x="1130" d="M561 -25q-199 0 -331 123t-132 330q0 227 162 398t391 171q215 0 338 -123q82 -82 82 -167q0 -39 -24.5 -60.5t-47 -19.5t-26.5 4q-20 111 -103.5 179.5t-214.5 68.5q-180 0 -299.5 -134.5t-119.5 -308.5q0 -152 92 -246t245 -94q201 0 318 185q2 4 20.5 -1.5t37 -21.5 t18.5 -41q0 -47 -64 -111q-55 -55 -146.5 -93t-195.5 -38z" />
<glyph unicode="d" d="M1001 -16q-139 0 -139 140q0 17 2 36q-139 -184 -356 -185q-166 0 -284 115t-118 318q0 233 152 412t381 179q244 0 360 -198l125 585h133l-251 -1179q-8 -34 -8 -58q0 -27 10 -43q18 -29 86 -30q4 0 1 -23.5t-26 -46t-68 -22.5zM524 92q143 0 256 101.5t144 252.5 l39 179q-90 258 -332 258q-178 0 -283.5 -143.5t-105.5 -331.5q0 -145 82.5 -230.5t199.5 -85.5z" />
<glyph unicode="e" horiz-adv-x="1103" d="M516 -25q-203 0 -313.5 110t-110.5 288q0 264 177 445t438 181q162 0 255 -70.5t93 -187.5q0 -156 -127 -233.5t-441 -77.5q-106 0 -258 12q-2 -20 -2 -61q0 -133 76 -212t217 -79q209 0 330 162q2 4 19.5 -2t34 -22.5t16.5 -39.5q0 -41 -46 -86q-127 -127 -358 -127z M700 883q-150 0 -270.5 -92.5t-171.5 -235.5q98 -12 217 -12q444 0 445 196q0 59 -58 101.5t-162 42.5z" />
<glyph unicode="f" horiz-adv-x="745" d="M158 0l182 856h-197l7 33l16 72l2 14h197l26 119q68 317 318 317q115 0 172 -57q29 -29 28 -66q0 -20 -12 -38.5t-24.5 -27t-14.5 -3.5q-51 74 -156 73q-141 0 -186 -217l-22 -100h254l-7 -33l-16 -72l-2 -14h-252l-180 -856h-133z" />
<glyph unicode="g" d="M469 -410q-238 0 -365 127q-70 70 -69 131q0 41 23.5 66t47 31t25.5 0q63 -233 350 -234q285 0 353 318l32 151q-139 -178 -356 -178q-166 0 -286 114.5t-120 317.5q0 217 162 391t387 174q119 0 211 -54t137 -140l37 170h131l-204 -959q-43 -205 -169 -315.5 t-327 -110.5zM526 119q139 0 253 93t145 237l41 182q-35 117 -119 184.5t-201 67.5q-172 0 -288.5 -138.5t-116.5 -310.5q0 -143 84.5 -229t201.5 -86z" />
<glyph unicode="h" horiz-adv-x="1169" d="M928 -16q-61 0 -96 38.5t-35 106.5q0 66 53 260q51 182 51 256q0 106 -58.5 167.5t-164.5 61.5q-111 0 -190.5 -57t-151.5 -178l-135 -639h-133l282 1331q14 63 62 64h16q57 0 57 -46q0 -8 -2 -18l-110 -518q53 88 139 137t184 49q158 0 250 -92t92 -237q0 -82 -59 -299 q-49 -172 -49 -221q0 -39 20.5 -55.5t65.5 -20.5q4 0 1 -22.5t-24.5 -45t-64.5 -22.5z" />
<glyph unicode="i" horiz-adv-x="497" d="M258 -16q-145 0 -145 139q0 36 10 82l164 770h133l-164 -768q-7 -33 -7 -57q0 -30 11 -46q20 -29 94 -28q4 0 1 -23.5t-26.5 -46t-70.5 -22.5zM424 1221q-90 0 -90 67q0 43 24.5 74t69.5 31q90 0 90 -68q0 -43 -24.5 -73.5t-69.5 -30.5z" />
<glyph unicode="j" horiz-adv-x="497" d="M-104 -416q-115 0 -170 56q-29 29 -29 57q0 23 13.5 44t26.5 31.5t15 8.5q51 -78 148 -78q61 0 98 38t55 132l234 1102h133l-240 -1127q-55 -264 -284 -264zM424 1221q-90 0 -90 67q0 43 24.5 74t69.5 31q90 0 90 -68q0 -43 -24.5 -73.5t-69.5 -30.5z" />
<glyph unicode="k" horiz-adv-x="972" d="M745 -16q-61 0 -104 39.5t-137 181.5l-197 297l-106 -502h-133l294 1386h134l-183 -854l580 467q2 2 16.5 -3t26.5 -18t17 -33l2 -10q0 -17 -13 -39q-16 -30 -59 -65l-424 -335l174 -256q66 -96 101.5 -120t109.5 -28q2 0 2 -11t-4 -27.5t-13.5 -32t-31 -26.5t-52.5 -11z " />
<glyph unicode="l" horiz-adv-x="497" d="M258 -16q-145 0 -145 139q0 36 10 82l252 1181h133l-252 -1179q-7 -33 -7 -57q0 -30 11 -46q20 -29 94 -28q4 0 1 -23.5t-26.5 -46t-70.5 -22.5z" />
<glyph unicode="m" horiz-adv-x="1820" d="M1579 -16q-61 0 -96 38.5t-35 106.5q0 66 53 260q51 182 51 256q0 104 -57 166.5t-152 62.5q-104 0 -178.5 -50t-148.5 -165l-139 -659h-134l119 561q10 47 10 88q0 79 -36 137q-55 88 -168 88q-104 0 -179 -50t-149 -165l-139 -659h-133l208 977q0 6 29 6q79 0 79 -88 q0 -23 -5 -53l-2 -6q117 164 309 163q113 0 194 -57t109 -156q135 213 373 213q145 0 236.5 -93t91.5 -236q0 -82 -60 -299q-49 -172 -49 -221q0 -39 20.5 -55.5t65.5 -20.5q4 0 1 -22.5t-24.5 -45t-64.5 -22.5z" />
<glyph unicode="n" horiz-adv-x="1169" d="M928 -16q-61 0 -96 38.5t-35 106.5q0 66 53 260q51 182 51 256q0 106 -58.5 167.5t-164.5 61.5q-111 0 -190.5 -57t-151.5 -178l-135 -639h-133l208 977q0 6 29 6q79 0 79 -88q0 -23 -5 -53l-6 -27q117 184 323 184q158 0 250 -92t92 -237q0 -82 -59 -299 q-49 -172 -49 -221q0 -39 20.5 -55.5t65.5 -20.5q4 0 1 -22.5t-24.5 -45t-64.5 -22.5z" />
<glyph unicode="o" horiz-adv-x="1196" d="M549 -25q-188 0 -318.5 127t-130.5 326q0 231 158 401t391 170q188 0 318.5 -127t130.5 -325q0 -231 -158 -401.5t-391 -170.5zM557 92q168 0 287 134t119 317q0 145 -93.5 242.5t-228.5 97.5q-168 0 -286.5 -134.5t-118.5 -316.5q0 -145 93 -242.5t228 -97.5z" />
<glyph unicode="p" horiz-adv-x="1228" d="M-16 -395l292 1372q0 6 29 6q79 0 79 -88q0 -23 -5 -53l-4 -25q143 182 354 182q166 0 283.5 -114.5t117.5 -317.5q0 -233 -151.5 -412.5t-380.5 -179.5q-125 0 -219 61.5t-139 147.5l-123 -579h-133zM606 92q178 0 283.5 143.5t105.5 331.5q0 145 -83 230.5t-199.5 85.5 t-218 -67.5t-158.5 -178.5l-39 -184q-6 -34 -6 -66q0 -104 66 -186q87 -109 249 -109z" />
<glyph unicode="q" d="M743 -395l119 553q-143 -182 -354 -183q-166 0 -284 115t-118 318q0 233 152 412t381 179q119 0 213 -51t149 -137l9 35q14 74 39.5 105.5t66.5 31.5q12 0 24.5 -4t19.5 -7t7 -5l-290 -1362h-134zM524 92q143 0 256 101.5t144 252.5l39 179q-45 129 -121 193.5t-211 64.5 q-178 0 -283.5 -143.5t-105.5 -331.5q0 -145 82.5 -230.5t199.5 -85.5z" />
<glyph unicode="r" horiz-adv-x="761" d="M68 0l208 977q0 6 29 6q79 0 79 -88q0 -23 -5 -53l-8 -39q102 197 274 196q59 0 100 -25.5t41 -66.5q0 -29 -12 -51t-25.5 -30.5t-15.5 -6.5q-49 53 -127 53q-113 0 -194.5 -129t-126.5 -346l-84 -397h-133z" />
<glyph unicode="s" horiz-adv-x="985" d="M455 -25q-236 0 -363 127q-49 49 -49 93q0 27 17.5 47t36 27t20.5 3q111 -184 346 -184q113 0 175 45t62 121q0 61 -53 96t-180 78q-70 25 -109 42t-89 50t-73.5 80t-23.5 111q0 127 102.5 207.5t262.5 80.5q209 0 323 -114q49 -49 49 -99q0 -27 -18.5 -46t-36.5 -24 t-23 1q-39 76 -121.5 123t-183.5 47q-106 0 -165.5 -47t-59.5 -112.5t56.5 -103.5t185.5 -83q66 -23 105.5 -41.5t87.5 -50t70.5 -75.5t22.5 -104q0 -135 -100 -215t-274 -80z" />
<glyph unicode="t" horiz-adv-x="768" d="M426 -25q-141 0 -207 92q-42 58 -42 149q0 51 13 114l111 526h-139l6 33l16 72l2 14h140l20 96q14 74 40 105.5t69 31.5q12 0 24.5 -4t19.5 -7t7 -5l-47 -217h303l-6 -33l-17 -72l-2 -14h-303l-112 -526q-12 -54 -12 -96q0 -144 136 -144q84 0 136 60q2 2 9 -5.5t14 -24 t7 -32.5q0 -35 -28 -63q-49 -50 -158 -50z" />
<glyph unicode="u" horiz-adv-x="1169" d="M932 -16q-139 0 -139 142q0 17 2 36q-53 -88 -139.5 -137.5t-184.5 -49.5q-193 0 -280 125q-58 84 -58 201q0 58 14 123l117 551h133l-118 -561q-11 -50 -11 -93q0 -79 36 -135q56 -86 185 -86q111 0 191 57.5t151 178.5l136 639h133l-164 -768q-8 -35 -8 -59 q0 -28 10 -43q18 -28 86 -29q4 0 1 -23.5t-25.5 -46t-67.5 -22.5z" />
<glyph unicode="v" horiz-adv-x="1017" d="M328 0l-88 676q-14 115 -50 158t-108 43q-2 0 -2 11t3 26.5t11 31t28.5 26.5t51.5 11q66 0 109 -43q63 -63 88 -276l61 -529l500 846q2 4 10 4q10 0 29 -5q35 -9 48 -41q3 -7 3 -17q0 -34 -37 -101l-500 -821h-157z" />
<glyph unicode="w" horiz-adv-x="1492" d="M258 0l2 676q0 119 -32.5 161t-108.5 46q-3 0 -3 13q0 9 4 23q5 15 15 29.5t32.5 24.5t55.5 10q59 0 99 -39q68 -68 67 -258v-22l-8 -523l309 619q23 45 50.5 60.5t70.5 15.5q94 0 102 -99l54 -598l393 842q0 3 6 3q9 0 30 -5q36 -8 51 -39q5 -9 5 -24q0 -33 -25 -95 l-399 -821h-166l-76 674l-348 -674h-180z" />
<glyph unicode="x" horiz-adv-x="1021" d="M803 -8q-78 0 -132.5 52t-129.5 214l-60 125l-395 -401q-2 -2 -5 -2q-9 0 -32 12q-36 19 -36 56q0 35 61 102l340 333l-234 449q-8 14 25 37q25 17 48 17q40 0 75 -50q12 -16 22 -39l160 -340l428 436q2 2 5 2q10 0 33 -12q37 -19 37 -55q0 -34 -63 -103l-372 -366 l100 -191q55 -104 95 -134t120 -34q2 0 3 -11t-2 -27.5t-11.5 -32t-28.5 -26.5t-51 -11z" />
<glyph unicode="y" horiz-adv-x="1019" d="M18 -418q-104 0 -151 47q-25 25 -25 58q0 20 12.5 37.5t26 26.5t17.5 5q18 -23 53 -38t59 -15q63 0 133 62.5t189 236.5l33 47q-61 8 -72 88l-57 539q-10 106 -47 153.5t-107 47.5q-2 0 -2 11t3 26.5t12 31t32 26.5t57 11q53 0 90 -37q74 -74 93 -282l49 -543l520 854 h145l-620 -1000q-145 -231 -238.5 -312t-204.5 -81z" />
<glyph unicode="z" horiz-adv-x="1038" d="M20 0v100l811 760h-548q-70 0 -70 47q0 12 6 28.5t12.5 28t8.5 11.5h764v-101l-811 -759h567q70 0 69 -47q0 -12 -6 -28.5t-12 -28t-8 -11.5h-783z" />
<glyph unicode="{" horiz-adv-x="909" d="M592 -410q-90 0 -178 88q-193 193 -144 586l-118 86q-43 31 -55.5 49.5t-12.5 46.5q0 76 39 115q18 18 82 43l147 58q74 328 254 507q162 162 330 162q27 0 46 -15.5t19 -43.5q0 -12 -6 -25.5t-12 -20.5t-8 -7q-70 -4 -151 -43t-138 -97q-78 -78 -126 -193.5t-91 -305.5 l-266 -105l213 -153q-63 -395 90 -551q53 -53 141 -78q12 -6 12 -37q1 -66 -67 -66z" />
<glyph unicode="|" horiz-adv-x="567" d="M88 -403q-61 0 -45 71l340 1602q14 63 74 63h12q29 0 41 -19.5t4 -51.5l-340 -1602q-14 -63 -74 -63h-12z" />
<glyph unicode="}" horiz-adv-x="909" d="M-39 -410q-27 0 -46 15.5t-19 44.5q0 12 6 25.5t12 20.5t8 7q70 4 151 43t138 96q78 78 126 194t91 306l266 104l-213 154q63 395 -90 551q-53 53 -141 78q-12 6 -12 37q0 66 67 65q90 0 178 -88q193 -193 144 -586l118 -86q43 -31 55.5 -49t12.5 -47q0 -76 -39 -115 q-18 -18 -82 -43l-147 -57q-74 -328 -254 -508q-162 -162 -330 -162z" />
<glyph unicode="~" horiz-adv-x="1093" d="M682 330q-51 0 -129 44t-156 120q-63 -150 -110 -150t-47 41q0 70 51 133.5t112 63.5q51 0 129 -44t156 -120q63 150 110.5 149.5t47.5 -41.5q0 -70 -51.5 -133t-112.5 -63z" />
<glyph unicode="&#xa1;" horiz-adv-x="575" d="M94 0l248 922q10 41 35 41q31 0 39 -12.5t4 -45.5l-144 -905h-182zM444 1135q-98 0 -98 69q0 74 33 107q27 27 76 26q98 0 98 -69q0 -74 -33 -107q-27 -26 -76 -26z" />
<glyph unicode="&#xa2;" horiz-adv-x="1173" d="M494 -201q-63 0 -52 64l45 217q-150 37 -241.5 151.5t-91.5 286.5q0 225 160.5 396t387.5 173l41 195q14 63 58 64h12q63 0 51 -64l-43 -205q135 -27 223 -112q82 -82 82 -168q0 -39 -24.5 -60.5t-47 -19.5t-26.5 4q-16 92 -77.5 156.5t-157.5 85.5l-166 -779h2 q199 0 317 187q2 4 20.5 -1t37 -21.5t18.5 -41.5q0 -47 -64 -110q-55 -55 -146 -93t-196 -38h-10l-43 -203q-14 -63 -57 -64h-12zM291 526q0 -123 61.5 -210t167.5 -117l162 770q-170 -10 -280.5 -143.5t-110.5 -299.5z" />
<glyph unicode="&#xa3;" horiz-adv-x="1183" d="M84 0q-63 0 -64 35q0 47 27 78q12 14 53 14h109l119 412h-162q-61 0 -62 34q0 47 25 72q16 16 51 17h182l66 231q70 248 171 352.5t265 104.5t258 -95q66 -66 66 -135q0 -41 -23.5 -64.5t-45.5 -23.5h-25q-45 199 -238 199q-102 0 -170 -80t-125 -277l-61 -212h338 q61 0 61 -35q0 -47 -25 -72q-16 -16 -51 -16h-358l-119 -412h635q78 0 78 -51q0 -14 -7.5 -32.5t-14.5 -31t-9 -12.5h-944z" />
<glyph unicode="&#xa4;" horiz-adv-x="1351" d="M238 770q-59 0 -60 33q0 47 25 71q14 14 49 15h145q74 190 181 297q164 164 395 164q190 0 307 -117q72 -72 72 -164q0 -37 -23.5 -61.5t-45 -25.5t-26.5 1q-59 250 -301 250q-164 0 -284 -121q-80 -80 -140 -223h443q59 0 59 -33q0 -47 -24 -72q-14 -14 -49 -14h-469 q-27 -106 -37 -205h450q59 0 60 -33q0 -47 -25 -71q-14 -14 -49 -15h-440q10 -156 98 -254t231 -98q199 0 336 201q2 4 18.5 -2t32 -24.5t15.5 -41.5q0 -51 -66 -116q-57 -57 -148 -96.5t-184 -39.5q-223 0 -344 126t-129 345h-143q-59 0 -59 33q0 47 24 72q14 14 49 14h133 q14 111 41 205h-118z" />
<glyph unicode="&#xa5;" d="M238 522q-59 0 -60 33q0 47 25 72q14 14 49 14h293l-266 647q-2 6 9 16.5t30.5 19.5t39.5 9q55 0 76 -57l221 -588l508 649q2 2 22.5 -2t41 -22.5t20.5 -48.5q0 -37 -59 -109l-428 -514h278q59 0 60 -33q0 -47 -25 -71q-14 -14 -49 -15h-336l-35 -164h326q59 0 59 -32 q0 -47 -24 -72q-14 -14 -49 -14h-336l-39 -185q-14 -63 -76 -63h-6q-59 0 -45 63l37 185h-322q-59 0 -59 32q0 47 24 72q14 14 50 14h331l35 164h-321z" />
<glyph unicode="&#xa7;" horiz-adv-x="1134" d="M453 -328q-272 0 -406 133q-63 63 -63 123q0 31 20.5 54.5t41 32t22.5 3.5q98 -227 395 -227q139 0 213 53.5t74 145.5q0 47 -41 86t-78 56.5t-135 53.5l-31 13q-82 29 -126 48t-101.5 56t-84 86t-26.5 115q0 119 78 194.5t196 102.5q-131 86 -131 225q0 143 116 233.5 t308 90.5q238 0 363 -125q57 -57 57 -111q0 -31 -20.5 -52.5t-42 -29.5t-23.5 -2q-96 201 -344 201q-129 0 -203.5 -52.5t-74.5 -134.5q0 -29 8 -52t33.5 -45.5t41 -35t62.5 -34t64.5 -27.5t78.5 -31l99.5 -39t84 -41.5t78 -55.5t45 -68t21.5 -91q0 -125 -77 -201.5 t-197 -99.5q137 -78 137 -217q0 -152 -115.5 -243t-316.5 -91zM623 281q109 4 187.5 65.5t78.5 151.5q0 39 -19.5 70.5t-56.5 54t-80 40t-100 37.5q-16 6 -25 9q-31 10 -92 34q-111 -14 -183.5 -69.5t-72.5 -141.5q0 -37 17.5 -66.5t37 -49t66.5 -42t75 -32.5l95 -35z" />
<glyph unicode="&#xa8;" horiz-adv-x="1093" d="M872 1122q-100 0 -100 78q0 49 27.5 84t77.5 35q100 0 100 -78q0 -49 -28 -84t-77 -35zM528 1122q-100 0 -100 78q0 49 27.5 84t76.5 35q100 0 101 -78q0 -49 -28 -84t-77 -35z" />
<glyph unicode="&#xa9;" horiz-adv-x="1619" d="M846 -25q-295 0 -483.5 192.5t-188.5 491.5q0 297 192.5 494t481.5 197q295 0 483.5 -192.5t188.5 -491.5q0 -297 -192.5 -494t-481.5 -197zM850 74q248 0 403.5 163.5t155.5 424.5q0 254 -161 421.5t-404 167.5q-248 0 -403.5 -163.5t-155.5 -423.5q0 -254 160.5 -422 t404.5 -168zM864 295q-160 0 -261 102.5t-101 261.5q0 156 104.5 261.5t255.5 105.5q147 0 234 -86q39 -39 39 -78q0 -20 -16.5 -37.5t-34 -23.5t-19.5 -2q-61 113 -205 112q-94 0 -163.5 -72.5t-69.5 -176.5q0 -109 69.5 -180.5t171.5 -71.5q150 0 205 122q2 4 19.5 -1 t35 -22t17.5 -40q0 -39 -49 -90q-80 -84 -232 -84z" />
<glyph unicode="&#xaa;" horiz-adv-x="1067" d="M895 535q-137 0 -115 161q-106 -168 -299 -168q-133 0 -222 88.5t-89 243.5q0 188 128 340t314 152q94 0 166 -43t105 -117l6 22q14 68 37.5 95.5t64.5 27.5q12 0 23.5 -3t17.5 -7t6 -6l-129 -602q-12 -59 2.5 -84t65.5 -27q4 0 1 -18.5t-23.5 -36.5t-59.5 -18zM506 637 q115 0 206 84t115 203l27 127q-57 195 -244 194q-139 0 -227 -116.5t-88 -262.5q0 -106 60.5 -167.5t150.5 -61.5zM408 -12q-88 0 -89 63q0 61 29 94q23 25 70 25q88 0 88 -63.5t-31 -94.5q-24 -24 -67 -24z" />
<glyph unicode="&#xab;" horiz-adv-x="1107" d="M838 180q-74 0 -174 127q-45 57 -82 118.5t-37 76.5q0 10 67.5 72.5t147.5 121.5q168 129 239 129q47 0 48 -49q0 -31 -62.5 -88t-153.5 -113q-6 -4 -68.5 -42.5t-96.5 -57.5q61 -49 112 -96q66 -61 90.5 -92t24.5 -60q0 -18 -16 -32.5t-39 -14.5zM475 172 q-80 0 -196 143q-53 66 -96.5 131.5t-43.5 77.5q0 6 23.5 32t68.5 67t97 79q156 119 225 119q47 0 47 -49q0 -63 -186 -178q-139 -88 -154 -96q63 -49 131 -111q78 -72 106.5 -105.5t30.5 -62.5q2 -18 -14 -32.5t-39 -14.5z" />
<glyph unicode="&#xad;" horiz-adv-x="819" d="M135 434v123h555v-123h-555z" />
<glyph unicode="&#xae;" horiz-adv-x="1619" d="M846 -25q-295 0 -483.5 192.5t-188.5 491.5q0 297 192.5 494t481.5 197q295 0 483.5 -192.5t188.5 -491.5q0 -297 -192.5 -494t-481.5 -197zM850 74q248 0 403.5 163.5t155.5 424.5q0 254 -161 421.5t-404 167.5q-248 0 -403.5 -163.5t-155.5 -423.5q0 -254 160.5 -422 t404.5 -168zM1147 801q0 -102 -62.5 -153.5t-150.5 -57.5l199 -230q4 -4 -4.5 -16t-26 -23.5t-37.5 -11.5q-49 0 -84 45l-178 226h-90v-213q0 -57 -54 -58h-16q-53 0 -53 66v575q0 33 18.5 51.5t46.5 18.5h217q275 0 275 -219zM711 682h163q72 0 111 30.5t39 86.5 q0 117 -156 116h-157v-233z" />
<glyph unicode="&#xaf;" horiz-adv-x="1093" d="M473 1163q-63 0 -63 37q0 45 24 74q14 16 53 16h451q63 0 63 -37q0 -45 -24 -73q-14 -16 -53 -17h-451z" />
<glyph unicode="&#xb0;" horiz-adv-x="864" d="M489 713q-121 0 -199.5 76.5t-78.5 201.5q0 152 105.5 258.5t250.5 106.5q121 0 200 -77t79 -202q0 -152 -106 -258t-251 -106zM510 819q90 0 155.5 73t65.5 177q0 76 -52 128t-132 52q-90 0 -155.5 -72.5t-65.5 -177.5q0 -76 52 -128t132 -52z" />
<glyph unicode="&#xb1;" horiz-adv-x="1298" d="M375 842q-59 0 -60 32q0 47 25 72q14 14 49 15h297l62 292q14 63 59 64h16q61 0 49 -64l-61 -292h283q59 0 59 -33q0 -47 -25 -72q-14 -14 -49 -14h-295l-61 -295q-14 -63 -59 -64h-17q-61 0 -49 64l61 295h-284zM231 244q-63 0 -63 32q0 51 27 78q14 14 51 15h737 q63 0 64 -33q0 -51 -27 -78q-14 -14 -51 -14h-738z" />
<glyph unicode="&#xb2;" horiz-adv-x="757" d="M236 780q-35 -35 -43 -88h358q70 0 70 -45q0 -12 -6.5 -28.5t-12.5 -25.5t-8 -9h-469q-23 0 -37 23.5t-12 56.5q6 109 78 184q61 63 213 115q82 29 117.5 45t64.5 45.5t29 72.5q0 47 -41 76t-107 29q-121 0 -178 -125q-2 -4 -20.5 -1t-37 19.5t-18.5 44.5q0 47 47 95 q82 78 221 77q119 0 188.5 -56t69.5 -152q0 -104 -66.5 -157.5t-203.5 -98.5q-155 -54 -196 -97z" />
<glyph unicode="&#xb3;" horiz-adv-x="757" d="M633 809q0 -98 -74 -169t-227.5 -71t-227.5 74q-45 43 -45 92q0 35 20.5 55.5t41 23.5t22.5 -1q23 -139 191 -139q82 0 126 40t44 101q0 49 -36 78t-103 29h-43q-49 0 -49.5 34.5t18.5 51.5q12 14 53 14h51q164 0 164 115q0 45 -40 72.5t-99 27.5q-123 0 -182 -104 q-2 -2 -19.5 1t-34 17t-16.5 39q0 39 35 70q78 82 225 81q106 0 183 -53t77 -135q0 -154 -170 -190q115 -41 115 -154z" />
<glyph unicode="&#xb4;" horiz-adv-x="1093" d="M539 1128.5q-4 6.5 40 51.5t117.5 107.5t137.5 98.5q49 31 94 31q27 0 43 -16.5t16 -40.5q0 -49 -84 -98q-70 -41 -158 -76t-145 -49.5t-61 -8z" />
<glyph unicode="&#xb6;" horiz-adv-x="1273" d="M924 -8q-66 0 -50 71l256 1207q14 63 70 63h19q66 0 49 -71l-256 -1207q-14 -63 -70 -63h-18zM666 -8q-66 0 -50 71l113 531h-113q-217 0 -331.5 78t-114.5 229q0 190 123 307t391 117h244q45 0 65.5 -24.5t10.5 -67.5l-250 -1178q-14 -63 -70 -63h-18z" />
<glyph unicode="&#xb7;" horiz-adv-x="522" d="M260 397q-98 0 -98 70q0 74 33 106q27 27 75 27q98 0 99 -70q0 -74 -33 -106q-27 -27 -76 -27z" />
<glyph unicode="&#xb8;" horiz-adv-x="1093" d="M260 -479q-12 -12 -41 8t-20 33l219 342q2 4 31.5 -1t58.5 -24.5t29 -48.5q0 -45 -45 -92z" />
<glyph unicode="&#xb9;" horiz-adv-x="757" d="M141 584q-57 0 -51 45q0 20 10 35q14 31 62 30h141l105 471q-45 -45 -109 -45q-45 0 -71.5 22.5t-26.5 59.5q0 25 12 45.5t23.5 28.5t13.5 6q31 -47 86 -47q37 0 72.5 27.5t50.5 70.5h51q57 0 45 -63l-129 -576h129q27 0 40 -12t11 -33q0 -23 -12 -35q-10 -31 -59 -30 h-394z" />
<glyph unicode="&#xba;" horiz-adv-x="976" d="M543 526q-156 0 -259.5 100.5t-103.5 264.5q0 186 126 322.5t315 136.5q158 0 261 -100.5t103 -262.5q0 -186 -126 -323.5t-316 -137.5zM393 -12q-88 0 -88 63q0 61 29 94q23 25 69 25q88 0 88.5 -63.5t-30.5 -94.5q-25 -24 -68 -24zM549 635q131 0 221 103.5t90 244.5 q0 111 -70.5 184.5t-175.5 73.5q-131 0 -220 -103.5t-89 -244.5q0 -111 71 -184.5t173 -73.5z" />
<glyph unicode="&#xbb;" horiz-adv-x="1107" d="M559 174q-47 0 -47 49q0 63 186 178l154 97q-63 49 -131 110q-78 72 -106.5 106t-30.5 62q-2 18 14 32.5t39 14.5q80 0 197 -143q53 -66 96 -131.5t43 -77.5q0 -6 -23.5 -31.5t-68.5 -66.5t-97 -80q-155 -119 -225 -119zM113 170q-47 0 -47 49q0 31 62 88.5t153 112.5 q6 4 68.5 43t96.5 57q-61 49 -112 96q-66 61 -90.5 92t-24.5 60q0 18 16.5 32.5t38.5 14.5q74 0 175 -127q45 -57 81.5 -118.5t36.5 -75.5q0 -10 -67.5 -73t-147.5 -122q-167 -129 -239 -129z" />
<glyph unicode="&#xbc;" horiz-adv-x="1691" d="M1378 -6q-61 0 -45 63l27 138h-309q-4 0 -13.5 10t-17.5 28.5t-8 38.5q0 39 51 99l313 321q31 35 53.5 46.5t65.5 11.5q106 0 86 -93l-76 -356h72q51 0 51 -35t-20 -59q-14 -12 -45 -12h-80l-31 -140q-10 -61 -57 -61h-17zM1499 1294q6 -2 16.5 -6t23.5 -20.5t9 -38.5 q-8 -41 -73 -109l-539 -522l-676 -653q-4 -4 -18.5 3t-26.5 24.5t-8 37.5q6 29 19.5 48.5t54.5 60.5q23 25 105 104l219 211l212 205zM141 584q-57 0 -51 45q0 20 10 35q14 31 62 30h141l105 471q-45 -45 -109 -45q-45 0 -71.5 22.5t-26.5 59.5q0 25 12 45.5t23.5 28.5 t13.5 6q31 -47 86 -47q37 0 72.5 27.5t50.5 70.5h51q57 0 45 -63l-129 -576h129q27 0 40 -12t11 -33q0 -23 -12 -35q-10 -31 -59 -30h-394zM1462 647l-336 -348h263z" />
<glyph unicode="&#xbd;" horiz-adv-x="1691" d="M1169 197q-35 -35 -43 -88h359q70 0 69 -46q0 -12 -6 -28.5t-12 -25.5t-8 -9h-469q-23 0 -37 23.5t-12 56.5q6 109 77 184q61 63 213 115q82 29 118 45t64.5 46t28.5 73q0 47 -40.5 75.5t-106.5 28.5q-121 0 -178 -125q-2 -4 -20.5 -1t-37 19.5t-18.5 45.5q0 47 47 94 q82 78 221 78q119 0 188.5 -56.5t69.5 -152.5q0 -104 -66.5 -157.5t-203.5 -98.5q-156 -53 -197 -96zM1438 1294q6 -2 16 -6t23.5 -20.5t9.5 -38.5q-8 -41 -74 -109l-539 -522l-675 -653q-4 -4 -18.5 3t-27 24.5t-8.5 37.5q6 29 19.5 48.5t54.5 60.5q23 25 106 104l219 211 l212 205zM141 584q-57 0 -51 45q0 20 10 35q14 31 62 30h141l105 471q-45 -45 -109 -45q-45 0 -71.5 22.5t-26.5 59.5q0 25 12 45.5t23.5 28.5t13.5 6q31 -47 86 -47q37 0 72.5 27.5t50.5 70.5h51q57 0 45 -63l-129 -576h129q27 0 40 -12t11 -33q0 -23 -12 -35 q-10 -31 -59 -30h-394z" />
<glyph unicode="&#xbe;" horiz-adv-x="1691" d="M1378 -6q-61 0 -45 63l27 138h-309q-4 0 -13.5 10t-17.5 28.5t-8 38.5q0 39 51 99l313 321q31 35 53.5 46.5t65.5 11.5q106 0 86 -93l-76 -356h72q51 0 51 -35t-20 -59q-14 -12 -45 -12h-80l-31 -140q-10 -61 -57 -61h-17zM1499 1294q6 -2 16.5 -6t23.5 -20.5t9 -38.5 q-8 -41 -73 -109l-539 -522l-676 -653q-4 -4 -18.5 3t-26.5 24.5t-8 37.5q6 29 19.5 48.5t54.5 60.5q23 25 105 104l219 211l212 205zM633 809q0 -98 -74 -169t-227.5 -71t-227.5 74q-45 43 -45 92q0 35 20.5 55.5t41 23.5t22.5 -1q23 -139 191 -139q82 0 126 40t44 101 q0 49 -36 78t-103 29h-43q-49 0 -49.5 34.5t18.5 51.5q12 14 53 14h51q164 0 164 115q0 45 -40 72.5t-99 27.5q-123 0 -182 -104q-2 -2 -19.5 1t-34 17t-16.5 39q0 39 35 70q78 82 225 81q106 0 183 -53t77 -135q0 -154 -170 -190q115 -41 115 -154zM1462 647l-336 -348h263 z" />
<glyph unicode="&#xbf;" horiz-adv-x="1017" d="M748 958l-19 -86q-23 -109 -80 -167t-184 -103q-143 -49 -209 -106.5t-66 -163.5q0 -100 74 -169t201 -69q113 0 192.5 68.5t122.5 181.5q2 6 23.5 0t43 -25.5t21.5 -48.5q0 -82 -86 -168q-131 -131 -325 -131q-182 0 -293 102.5t-111 258.5q0 258 324 364q117 37 161 77 t62 118l16 67h132zM715 1333q98 0 98 -69q0 -74 -33 -107q-27 -27 -75 -27q-98 0 -99 70q0 74 33 107q27 26 76 26z" />
<glyph unicode="&#xc0;" horiz-adv-x="1316" d="M111 0h-162l768 1292q29 47 88 47q84 0 96 -61l256 -1278h-145l-80 432h-574zM430 555h477l-116 625zM919.5 1476.5q-6.5 -6.5 -57.5 11t-124.5 56.5t-131.5 86q-61 51 -61 101q0 25 20.5 42t44.5 17q41 0 92 -43q55 -45 109.5 -109.5t84.5 -109.5t23.5 -51.5z" />
<glyph unicode="&#xc1;" horiz-adv-x="1316" d="M111 0h-162l768 1292q29 47 88 47q84 0 96 -61l256 -1278h-145l-80 432h-574zM430 555h477l-116 625zM731 1476.5q-4 6.5 40 51.5t118 107.5t137 99.5q49 31 94 30q27 0 43.5 -16t16.5 -41q0 -49 -84 -98q-70 -41 -158 -76t-145.5 -49.5t-61.5 -8z" />
<glyph unicode="&#xc2;" horiz-adv-x="1316" d="M111 0h-162l768 1292q29 47 88 47q84 0 96 -61l256 -1278h-145l-80 432h-574zM430 555h477l-116 625zM596 1473q-39 0 -39 34q0 61 137 176q41 35 87 69t73 51.5t31 17.5t23.5 -18.5t49 -50.5t54.5 -62q80 -104 80 -158q0 -59 -50 -59q-25 0 -49 27.5t-65 96.5l-60 105 l-104 -109q-117 -120 -168 -120z" />
<glyph unicode="&#xc3;" horiz-adv-x="1316" d="M111 0h-162l768 1292q29 47 88 47q84 0 96 -61l256 -1278h-145l-80 432h-574zM430 555h477l-116 625zM979 1470q-51 0 -129 44.5t-156 119.5q-63 -150 -110 -149.5t-47 41.5q0 70 51 133t112 63q51 0 129 -44t156 -119q63 150 110.5 149.5t47.5 -41.5q0 -70 -51.5 -133.5 t-112.5 -63.5z" />
<glyph unicode="&#xc4;" horiz-adv-x="1316" d="M111 0h-162l768 1292q29 47 88 47q84 0 96 -61l256 -1278h-145l-80 432h-574zM430 555h477l-116 625zM1004 1470q-100 0 -101 78q0 49 27.5 84t77.5 35q100 0 100 -78q0 -49 -27.5 -84t-76.5 -35zM659 1470q-100 0 -100 78q0 49 27.5 84t77.5 35q100 0 100 -78 q0 -49 -28 -84t-77 -35z" />
<glyph unicode="&#xc5;" horiz-adv-x="1316" d="M106 -6q-4 2 -25.5 -1t-46 16.5t-24.5 58.5q0 33 39 100l633 1065l18 27q-104 55 -104 178q0 111 76 192.5t190 81.5q98 0 160.5 -58.5t62.5 -148.5q0 -86 -50 -159.5t-130 -100.5q6 -12 8 -31l238 -1179q2 -6 -8 -15.5t-29.5 -17.5t-40.5 -8q-59 0 -74 76l-67 362h-574z M430 555h477l-116 625zM823 1323q70 0 114 53.5t44 120.5q0 51 -35 87t-88 36q-70 0 -114 -53.5t-44 -120.5q0 -51 35 -87t88 -36z" />
<glyph unicode="&#xc6;" horiz-adv-x="1802" d="M106 -6q-6 -6 -40.5 2t-52 43t35.5 129l645 1085q43 72 117 72h995q-2 -10 -6 -35l-8 -40q-6 -30 -8 -38l-4 -14h-862l92 -457h538l-6 -32l-8 -39t-8 -37l-4 -15h-488l99 -491h450q-2 -10 -6 -35l-8 -40q-6 -30 -8 -38l-5 -14h-448q-53 0 -78.5 19.5t-34.5 70.5l-63 342 h-574zM430 555h477l-116 625z" />
<glyph unicode="&#xc7;" horiz-adv-x="1400" d="M758 -25q-272 0 -435 155t-163 417q0 330 213 566.5t524 236.5q250 0 395 -146q86 -86 86 -164q0 -33 -20.5 -54t-42 -26.5t-29.5 1.5q-98 268 -395 268q-248 0 -416 -194.5t-168 -467.5q0 -215 124 -342t325 -127q283 0 424 215q2 4 19.5 -3t33.5 -25.5t16 -44.5 q0 -49 -59 -109q-66 -66 -182.5 -111t-249.5 -45zM557 -479q-12 -12 -41 8t-20 33l219 342q2 4 31.5 -1t58.5 -24.5t29 -48.5q0 -45 -46 -92z" />
<glyph unicode="&#xc8;" horiz-adv-x="1249" d="M88 0l264 1241q16 84 97 84h849q-2 -10 -6 -35q-12 -45 -16 -78l-4 -14h-789l-98 -457h641q-2 -10 -8 -32l-17 -76l-2 -15h-641l-104 -491h799q-2 -10 -9 -35l-16 -78l-2 -14h-938zM989 1476.5q-6 -6.5 -57 11t-125 56.5t-131 86q-61 51 -62 101q0 25 20.5 42t45.5 17 q41 0 92 -43q55 -45 109.5 -109.5t84 -109.5t23.5 -51.5z" />
<glyph unicode="&#xc9;" horiz-adv-x="1249" d="M88 0l264 1241q16 84 97 84h849q-2 -10 -6 -35q-12 -45 -16 -78l-4 -14h-789l-98 -457h641q-2 -10 -8 -32l-17 -76l-2 -15h-641l-104 -491h799q-2 -10 -9 -35l-16 -78l-2 -14h-938zM739 1476.5q-4 6.5 40 51.5t118 107.5t137 99.5q49 31 94 30q27 0 43.5 -16t16.5 -41 q0 -49 -84 -98q-70 -41 -158 -76t-145.5 -49.5t-61.5 -8z" />
<glyph unicode="&#xca;" horiz-adv-x="1249" d="M88 0l264 1241q16 84 97 84h849q-2 -10 -6 -35q-12 -45 -16 -78l-4 -14h-789l-98 -457h641q-2 -10 -8 -32l-17 -76l-2 -15h-641l-104 -491h799q-2 -10 -9 -35l-16 -78l-2 -14h-938zM645 1473q-39 0 -39 34q0 61 137 176q41 35 87.5 69t73 51.5t30.5 17.5t23.5 -18.5 t49 -50.5t54.5 -62q80 -104 80 -158q0 -59 -49 -59q-25 0 -49.5 27.5t-65.5 96.5l-59 105l-105 -109q-117 -120 -168 -120z" />
<glyph unicode="&#xcb;" horiz-adv-x="1249" d="M88 0l264 1241q16 84 97 84h849q-2 -10 -6 -35q-12 -45 -16 -78l-4 -14h-789l-98 -457h641q-2 -10 -8 -32l-17 -76l-2 -15h-641l-104 -491h799q-2 -10 -9 -35l-16 -78l-2 -14h-938zM1032 1470q-100 0 -100 78q0 49 27.5 84t76.5 35q100 0 101 -78q0 -49 -28 -84t-77 -35z M688 1470q-100 0 -100 78q0 49 27.5 84t76.5 35q100 0 101 -78q0 -49 -28 -84t-77 -35z" />
<glyph unicode="&#xcc;" horiz-adv-x="565" d="M113 0l282 1325h137l-282 -1325h-137zM565 1476.5q-6 -6.5 -57 11t-125 56.5t-131 86q-61 51 -62 101q0 25 20.5 42t45.5 17q43 0 92 -43q55 -45 109.5 -109.5t84 -109.5t23.5 -51.5z" />
<glyph unicode="&#xcd;" horiz-adv-x="565" d="M113 0l282 1325h137l-282 -1325h-137zM397 1476.5q-4 6.5 40 51.5t118 107.5t137 99.5q49 31 94 30q25 0 42.5 -16t17.5 -41q0 -49 -84 -98q-70 -41 -158 -76t-145.5 -49.5t-61.5 -8z" />
<glyph unicode="&#xce;" horiz-adv-x="565" d="M113 0l282 1325h137l-282 -1325h-137zM262 1473q-39 0 -39 34q0 61 137 176q41 35 87.5 69t73 51.5t30.5 17.5t23.5 -18.5t49 -50.5t54.5 -62q80 -104 80 -158q0 -59 -49 -59q-25 0 -49.5 27.5t-65.5 96.5l-59 105l-105 -109q-117 -120 -168 -120z" />
<glyph unicode="&#xcf;" horiz-adv-x="565" d="M113 0l282 1325h137l-282 -1325h-137zM326 1470q-100 0 -101 78q0 49 28 84t77 35q100 0 100 -78q0 -49 -27.5 -84t-76.5 -35zM670 1470q-100 0 -101 78q0 49 28 84t77 35q100 0 100 -78q0 -49 -27.5 -84t-76.5 -35z" />
<glyph unicode="&#xd0;" horiz-adv-x="1497" d="M260 0q-45 0 -65.5 24.5t-10.5 67.5l109 512h-131q-59 0 -60 33q0 47 25 72q14 14 49 14h141l111 518q12 84 96 84h226q309 0 482 -144.5t173 -406.5q0 -338 -214 -556t-611 -218h-320zM330 123h270q324 0 490.5 179t166.5 452q0 211 -136 329.5t-382 118.5h-180 l-102 -479h432q59 0 59 -33q0 -47 -24 -72q-14 -14 -50 -14h-442z" />
<glyph unicode="&#xd1;" horiz-adv-x="1452" d="M88 0l264 1239q20 94 99 94h34q31 0 49.5 -16.5t38.5 -56.5l496 -1053l240 1118h129l-267 -1249q-18 -84 -90 -84h-14q-49 0 -86 74l-516 1093l-248 -1159h-129zM1108 1470q-51 0 -129 44.5t-156 119.5q-63 -150 -110 -149.5t-47 41.5q0 70 51 133t112 63q51 0 129 -44 t156 -119q63 150 110.5 149.5t47.5 -41.5q0 -70 -51.5 -133.5t-112.5 -63.5z" />
<glyph unicode="&#xd2;" horiz-adv-x="1568" d="M750 -23q-268 0 -429 162t-161 412q0 340 223 569.5t510 229.5q268 0 429 -162t161 -412q0 -340 -223 -569.5t-510 -229.5zM764 98q221 0 396 191.5t175 476.5q0 199 -121.5 331t-334.5 132q-221 0 -396.5 -191.5t-175.5 -476.5q0 -199 122 -331t335 -132zM1067 1476.5 q-6 -6.5 -57.5 11t-125 56.5t-130.5 86q-61 51 -62 101q0 25 20.5 42t45.5 17q41 0 92 -43q55 -45 109.5 -109.5t84 -109.5t23.5 -51.5z" />
<glyph unicode="&#xd3;" horiz-adv-x="1568" d="M750 -23q-268 0 -429 162t-161 412q0 340 223 569.5t510 229.5q268 0 429 -162t161 -412q0 -340 -223 -569.5t-510 -229.5zM764 98q221 0 396 191.5t175 476.5q0 199 -121.5 331t-334.5 132q-221 0 -396.5 -191.5t-175.5 -476.5q0 -199 122 -331t335 -132zM776 1476.5 q-4 6.5 40 51.5t118 107.5t137 99.5q49 31 94 30q27 0 43.5 -16t16.5 -41q0 -49 -84 -98q-70 -41 -158 -76t-145.5 -49.5t-61.5 -8z" />
<glyph unicode="&#xd4;" horiz-adv-x="1568" d="M750 -23q-268 0 -429 162t-161 412q0 340 223 569.5t510 229.5q268 0 429 -162t161 -412q0 -340 -223 -569.5t-510 -229.5zM764 98q221 0 396 191.5t175 476.5q0 199 -121.5 331t-334.5 132q-221 0 -396.5 -191.5t-175.5 -476.5q0 -199 122 -331t335 -132zM723 1473 q-39 0 -39 34q0 61 137 176q41 35 87 69t73 51.5t31 17.5t23.5 -18.5t49 -50.5t54.5 -62q80 -104 80 -158q0 -59 -50 -59q-25 0 -49 27.5t-65 96.5l-60 105l-104 -109q-117 -120 -168 -120z" />
<glyph unicode="&#xd5;" horiz-adv-x="1568" d="M750 -23q-268 0 -429 162t-161 412q0 340 223 569.5t510 229.5q268 0 429 -162t161 -412q0 -340 -223 -569.5t-510 -229.5zM764 98q221 0 396 191.5t175 476.5q0 199 -121.5 331t-334.5 132q-221 0 -396.5 -191.5t-175.5 -476.5q0 -199 122 -331t335 -132zM1085 1470 q-51 0 -128.5 44.5t-155.5 119.5q-63 -150 -110.5 -149.5t-47.5 41.5q0 70 51 133t113 63q51 0 129 -44t156 -119q63 150 110 149.5t47 -41.5q0 -70 -51.5 -133.5t-112.5 -63.5z" />
<glyph unicode="&#xd6;" horiz-adv-x="1568" d="M750 -23q-268 0 -429 162t-161 412q0 340 223 569.5t510 229.5q268 0 429 -162t161 -412q0 -340 -223 -569.5t-510 -229.5zM764 98q221 0 396 191.5t175 476.5q0 199 -121.5 331t-334.5 132q-221 0 -396.5 -191.5t-175.5 -476.5q0 -199 122 -331t335 -132zM1130 1470 q-100 0 -100 78q0 49 27.5 84t77.5 35q100 0 100 -78q0 -49 -28 -84t-77 -35zM786 1470q-100 0 -100 78q0 49 27.5 84t77.5 35q100 0 100 -78q0 -49 -28 -84t-77 -35z" />
<glyph unicode="&#xd7;" horiz-adv-x="1173" d="M846 162q-31 0 -53 31l-197 262l-309 -262q-25 -23 -49 -23q-18 0 -40 23.5t-22 39.5q0 31 29 54l315 268l-196 264q-20 27 -21 45q0 20 20.5 40t43.5 20q31 0 53 -31l194 -260l308 260q25 23 49 22q18 0 39.5 -23.5t21.5 -39.5q0 -31 -28 -53l-314 -267l199 -266 q20 -27 20 -45q0 -20 -20 -39.5t-43 -19.5z" />
<glyph unicode="&#xd8;" horiz-adv-x="1568" d="M86 -66q-4 -4 -18.5 5.5t-26.5 28t-12 36.5q0 53 59 107l154 135q-82 139 -82 305q0 340 223 569.5t510 229.5q252 0 418 -160l211 188q4 4 18 -5t26.5 -27.5t12.5 -36.5q0 -53 -59 -107l-127 -112q90 -145 90 -314q0 -340 -223.5 -569.5t-509.5 -229.5q-260 0 -428 168z M764 98q221 0 396 191.5t175 476.5q0 133 -53 235l-860 -768q125 -135 342 -135zM307 561q0 -121 47 -225l856 766q-121 127 -331 127q-221 0 -396.5 -191.5t-175.5 -476.5z" />
<glyph unicode="&#xd9;" horiz-adv-x="1378" d="M657 -25q-274 0 -400 157t-62 452l145 686q14 63 70 63h18q66 0 49 -71l-145 -689q-49 -236 37 -354.5t297 -118.5q324 0 409 406l162 764q14 63 70 63h16q66 0 49 -71l-166 -785q-107 -502 -549 -502zM1012 1456q-6 -6 -57.5 11.5t-125 56.5t-131.5 86q-61 51 -61 100 q0 25 20.5 42t44.5 17q43 0 93 -43q55 -45 109 -109.5t84 -109.5t24 -51z" />
<glyph unicode="&#xda;" horiz-adv-x="1378" d="M657 -25q-274 0 -400 157t-62 452l145 686q14 63 70 63h18q66 0 49 -71l-145 -689q-49 -236 37 -354.5t297 -118.5q324 0 409 406l162 764q14 63 70 63h16q66 0 49 -71l-166 -785q-107 -502 -549 -502zM721 1456q-4 6 40 51t117.5 107.5t137.5 99.5q49 31 94 31 q25 0 42 -16.5t17 -40.5q0 -49 -84 -99q-70 -41 -157.5 -75.5t-145 -49t-61.5 -8.5z" />
<glyph unicode="&#xdb;" horiz-adv-x="1378" d="M657 -25q-274 0 -400 157t-62 452l145 686q14 63 70 63h18q66 0 49 -71l-145 -689q-49 -236 37 -354.5t297 -118.5q324 0 409 406l162 764q14 63 70 63h16q66 0 49 -71l-166 -785q-107 -502 -549 -502zM662 1452q-39 0 -39 35q0 61 137 176q41 35 87 68.5t72.5 51 t30.5 17.5t23.5 -18.5t49.5 -50t54 -62.5q80 -104 80 -158q0 -59 -49 -59q-25 0 -49.5 27.5t-65.5 97.5l-59 104l-105 -108q-116 -121 -167 -121z" />
<glyph unicode="&#xdc;" horiz-adv-x="1378" d="M657 -25q-274 0 -400 157t-62 452l145 686q14 63 70 63h18q66 0 49 -71l-145 -689q-49 -236 37 -354.5t297 -118.5q324 0 409 406l162 764q14 63 70 63h16q66 0 49 -71l-166 -785q-107 -502 -549 -502zM1073 1450q-100 0 -100 78q0 49 27.5 84t76.5 35q100 0 101 -78 q0 -49 -28 -84t-77 -35zM729 1450q-100 0 -100 78q0 49 27.5 84t76.5 35q100 0 101 -78q0 -49 -28 -84t-77 -35z" />
<glyph unicode="&#xdd;" horiz-adv-x="1193" d="M424 0l119 557l-318 768h146l260 -647l559 659q6 6 40 -9t43 -52t-59 -121l-536 -612l-115 -543h-139zM666 1456q-4 6 40 51t117.5 107.5t137.5 99.5q49 31 94 31q27 0 43 -16.5t16 -40.5q0 -49 -84 -99q-70 -41 -158 -75.5t-145 -49t-61 -8.5z" />
<glyph unicode="&#xde;" horiz-adv-x="1212" d="M152 -8q-66 0 -50 71l256 1207q14 63 70 63h18q66 0 50 -71l-41 -189h243q211 0 326 -89t115 -253q0 -223 -137.5 -345t-391.5 -122h-327l-43 -209q-8 -35 -23.5 -49t-46.5 -14h-18zM309 387h328q168 0 263 86t95 240q0 236 -305 235h-262z" />
<glyph unicode="&#xdf;" horiz-adv-x="1146" d="M606 -25q-160 0 -235 76q-39 39 -39 78q0 27 16.5 49.5t33.5 31.5t19 5q72 -123 213 -123q115 0 194 87t79 222q0 182 -242 263q-92 31 -92 90q0 43 17.5 71.5t33.5 38.5q188 0 277.5 53.5t89.5 180.5q0 88 -70 140t-182 52q-244 0 -318 -344l-198 -946h-133l204 958 q47 227 164 340t283 113q176 0 279.5 -83t103.5 -222q0 -154 -101.5 -244t-306.5 -102q143 -33 234.5 -125t91.5 -221q0 -186 -122 -312.5t-294 -126.5z" />
<glyph unicode="&#xe0;" d="M1001 -16q-80 0 -114.5 50t-20.5 142q-66 -98 -165 -149.5t-209 -51.5q-166 0 -279 110t-113 304q0 236 160 423t393 187q119 0 211 -54t137 -140l37 170h131l-163 -768q-16 -74 2 -101.5t86 -29.5q4 0 1 -23.5t-26 -46t-68 -22.5zM508 92q150 0 270.5 110.5t151.5 264.5 l35 162q-82 254 -320 254q-182 0 -295.5 -151.5t-113.5 -340.5q0 -137 78.5 -218t193.5 -81zM837.5 1128.5q-6.5 -6.5 -57.5 11t-124.5 56.5t-131.5 86q-61 51 -61 100q0 25 20.5 42.5t44.5 17.5q41 0 93 -43q55 -45 109 -109.5t84 -109.5t23.5 -51.5z" />
<glyph unicode="&#xe1;" d="M1001 -16q-80 0 -114.5 50t-20.5 142q-66 -98 -165 -149.5t-209 -51.5q-166 0 -279 110t-113 304q0 236 160 423t393 187q119 0 211 -54t137 -140l37 170h131l-163 -768q-16 -74 2 -101.5t86 -29.5q4 0 1 -23.5t-26 -46t-68 -22.5zM508 92q150 0 270.5 110.5t151.5 264.5 l35 162q-82 254 -320 254q-182 0 -295.5 -151.5t-113.5 -340.5q0 -137 78.5 -218t193.5 -81zM608 1128.5q-4 6.5 40 51.5t118 107.5t137 98.5q49 31 94 31q27 0 43.5 -16.5t16.5 -40.5q0 -49 -84 -98q-70 -41 -158 -76t-145.5 -49.5t-61.5 -8z" />
<glyph unicode="&#xe2;" d="M1001 -16q-80 0 -114.5 50t-20.5 142q-66 -98 -165 -149.5t-209 -51.5q-166 0 -279 110t-113 304q0 236 160 423t393 187q119 0 211 -54t137 -140l37 170h131l-163 -768q-16 -74 2 -101.5t86 -29.5q4 0 1 -23.5t-26 -46t-68 -22.5zM508 92q150 0 270.5 110.5t151.5 264.5 l35 162q-82 254 -320 254q-182 0 -295.5 -151.5t-113.5 -340.5q0 -137 78.5 -218t193.5 -81zM514 1124q-39 0 -39 35q0 61 137 176q41 35 87 69t73 51.5t31 17.5t23.5 -18.5t49 -50.5t54.5 -63q80 -104 80 -157q0 -59 -49 -60q-25 0 -49.5 28t-65.5 97l-60 105l-104 -109 q-117 -121 -168 -121z" />
<glyph unicode="&#xe3;" d="M1001 -16q-80 0 -114.5 50t-20.5 142q-66 -98 -165 -149.5t-209 -51.5q-166 0 -279 110t-113 304q0 236 160 423t393 187q119 0 211 -54t137 -140l37 170h131l-163 -768q-16 -74 2 -101.5t86 -29.5q4 0 1 -23.5t-26 -46t-68 -22.5zM508 92q150 0 270.5 110.5t151.5 264.5 l35 162q-82 254 -320 254q-182 0 -295.5 -151.5t-113.5 -340.5q0 -137 78.5 -218t193.5 -81zM897 1122q-51 0 -129 44t-156 120q-63 -150 -110 -149.5t-47 41.5q0 70 51 133t112 63q51 0 129 -44t156 -120q63 150 110.5 150t47.5 -41q0 -70 -51.5 -133.5t-112.5 -63.5z" />
<glyph unicode="&#xe4;" d="M1001 -16q-80 0 -114.5 50t-20.5 142q-66 -98 -165 -149.5t-209 -51.5q-166 0 -279 110t-113 304q0 236 160 423t393 187q119 0 211 -54t137 -140l37 170h131l-163 -768q-16 -74 2 -101.5t86 -29.5q4 0 1 -23.5t-26 -46t-68 -22.5zM508 92q150 0 270.5 110.5t151.5 264.5 l35 162q-82 254 -320 254q-182 0 -295.5 -151.5t-113.5 -340.5q0 -137 78.5 -218t193.5 -81zM922 1122q-100 0 -101 78q0 49 28 84t77 35q100 0 100 -78q0 -49 -27.5 -84t-76.5 -35zM578 1122q-100 0 -101 78q0 49 27.5 84t77.5 35q100 0 100 -78q0 -49 -27.5 -84t-76.5 -35 z" />
<glyph unicode="&#xe5;" d="M1001 -16q-80 0 -114.5 50t-20.5 142q-66 -98 -165 -149.5t-209 -51.5q-166 0 -279 110t-113 304q0 236 160 423t393 187q119 0 211 -54t137 -140l37 170h131l-163 -768q-16 -74 2 -101.5t86 -29.5q4 0 1 -23.5t-26 -46t-68 -22.5zM508 92q150 0 270.5 110.5t151.5 264.5 l35 162q-82 254 -320 254q-182 0 -295.5 -151.5t-113.5 -340.5q0 -137 78.5 -218t193.5 -81zM762 1126q-98 0 -160.5 58.5t-62.5 148.5q0 111 75.5 193t190.5 82q98 0 160.5 -58.5t62.5 -148.5q0 -111 -75.5 -193t-190.5 -82zM766 1219q70 0 114 53t44 121q0 51 -35 87 t-88 36q-70 0 -114 -53.5t-44 -121.5q0 -51 35 -86.5t88 -35.5z" />
<glyph unicode="&#xe6;" horiz-adv-x="1806" d="M401 -25q-156 0 -248 65.5t-92 178.5q0 186 168 270t580 93h20l2 8q29 137 -39.5 213t-222.5 76q-215 0 -317 -152q-2 -2 -15.5 5t-27.5 25.5t-14 41.5q0 63 103 131.5t286 68.5q150 0 247 -63.5t119 -179.5q162 244 459 243q162 0 255 -70.5t93 -187.5 q0 -156 -127 -233.5t-440 -77.5q-109 0 -258 12q-2 -20 -2 -61q0 -133 75.5 -212t217.5 -79q209 0 329 162q2 4 19.5 -2t34 -22.5t16.5 -39.5q0 -41 -45 -86q-127 -127 -358 -127q-154 0 -250.5 63.5t-132.5 174.5q-63 -113 -174 -175.5t-261 -62.5zM420 88q133 0 234.5 80 t129.5 201l25 108l-59 -2q-219 -6 -341 -35.5t-167 -79t-45 -131.5q0 -61 62.5 -101t160.5 -40zM1403 883q-150 0 -270.5 -92.5t-171.5 -235.5q98 -12 217 -12q444 0 444 196q0 59 -57.5 101.5t-161.5 42.5z" />
<glyph unicode="&#xe7;" horiz-adv-x="1130" d="M561 -25q-199 0 -331 123t-132 330q0 227 162 398t391 171q215 0 338 -123q82 -82 82 -167q0 -39 -24.5 -60.5t-47 -19.5t-26.5 4q-20 111 -103.5 179.5t-214.5 68.5q-180 0 -299.5 -134.5t-119.5 -308.5q0 -152 92 -246t245 -94q201 0 318 185q2 4 20.5 -1.5t37 -21.5 t18.5 -41q0 -47 -64 -111q-55 -55 -146.5 -93t-195.5 -38zM360 -479q-12 -12 -40.5 8t-20.5 33l219 342q2 4 32 -1t58.5 -24.5t28.5 -48.5q0 -45 -45 -92z" />
<glyph unicode="&#xe8;" horiz-adv-x="1103" d="M516 -25q-203 0 -313.5 110t-110.5 288q0 264 177 445t438 181q162 0 255 -70.5t93 -187.5q0 -156 -127 -233.5t-441 -77.5q-106 0 -258 12q-2 -20 -2 -61q0 -133 76 -212t217 -79q209 0 330 162q2 4 19.5 -2t34 -22.5t16.5 -39.5q0 -41 -46 -86q-127 -127 -358 -127z M700 883q-150 0 -270.5 -92.5t-171.5 -235.5q98 -12 217 -12q444 0 445 196q0 59 -58 101.5t-162 42.5zM819 1128.5q-6 -6.5 -57 11t-125 56.5t-131 86q-61 51 -62 100q0 25 20.5 42.5t45.5 17.5q43 0 92 -43q55 -45 109.5 -109.5t84 -109.5t23.5 -51.5z" />
<glyph unicode="&#xe9;" horiz-adv-x="1103" d="M516 -25q-203 0 -313.5 110t-110.5 288q0 264 177 445t438 181q162 0 255 -70.5t93 -187.5q0 -156 -127 -233.5t-441 -77.5q-106 0 -258 12q-2 -20 -2 -61q0 -133 76 -212t217 -79q209 0 330 162q2 4 19.5 -2t34 -22.5t16.5 -39.5q0 -41 -46 -86q-127 -127 -358 -127z M700 883q-150 0 -270.5 -92.5t-171.5 -235.5q98 -12 217 -12q444 0 445 196q0 59 -58 101.5t-162 42.5zM590 1128.5q-4 6.5 40 51.5t117.5 107.5t137.5 98.5q49 31 94 31q25 0 42 -16.5t17 -40.5q0 -49 -84 -98q-70 -41 -157.5 -76t-145 -49.5t-61.5 -8z" />
<glyph unicode="&#xea;" horiz-adv-x="1103" d="M516 -25q-203 0 -313.5 110t-110.5 288q0 264 177 445t438 181q162 0 255 -70.5t93 -187.5q0 -156 -127 -233.5t-441 -77.5q-106 0 -258 12q-2 -20 -2 -61q0 -133 76 -212t217 -79q209 0 330 162q2 4 19.5 -2t34 -22.5t16.5 -39.5q0 -41 -46 -86q-127 -127 -358 -127z M700 883q-150 0 -270.5 -92.5t-171.5 -235.5q98 -12 217 -12q444 0 445 196q0 59 -58 101.5t-162 42.5zM516 1124q-39 0 -39 35q0 61 137 176q41 35 87.5 69t73 51.5t30.5 17.5t23.5 -18.5t49 -50.5t54.5 -63q80 -104 80 -157q0 -59 -49 -60q-25 0 -49.5 28t-65.5 97 l-60 105l-104 -109q-117 -121 -168 -121z" />
<glyph unicode="&#xeb;" horiz-adv-x="1103" d="M516 -25q-203 0 -313.5 110t-110.5 288q0 264 177 445t438 181q162 0 255 -70.5t93 -187.5q0 -156 -127 -233.5t-441 -77.5q-106 0 -258 12q-2 -20 -2 -61q0 -133 76 -212t217 -79q209 0 330 162q2 4 19.5 -2t34 -22.5t16.5 -39.5q0 -41 -46 -86q-127 -127 -358 -127z M700 883q-150 0 -270.5 -92.5t-171.5 -235.5q98 -12 217 -12q444 0 445 196q0 59 -58 101.5t-162 42.5zM924 1122q-100 0 -101 78q0 49 28 84t77 35q100 0 100 -78q0 -49 -27.5 -84t-76.5 -35zM580 1122q-100 0 -101 78q0 49 28 84t77 35q100 0 100 -78q0 -49 -27.5 -84 t-76.5 -35z" />
<glyph unicode="&#xec;" horiz-adv-x="497" d="M258 -16q-182 0 -135 221l164 770h133l-164 -768q-16 -74 4.5 -102.5t93.5 -28.5q4 0 1 -23.5t-26.5 -46t-70.5 -22.5zM489.5 1128.5q-6.5 -6.5 -57.5 11t-125 56.5t-131 86q-61 51 -61 100q0 25 20.5 42.5t44.5 17.5q41 0 92 -43q55 -45 109.5 -109.5t84.5 -109.5 t23.5 -51.5z" />
<glyph unicode="&#xed;" horiz-adv-x="497" d="M258 -16q-182 0 -135 221l164 770h133l-164 -768q-16 -74 4.5 -102.5t93.5 -28.5q4 0 1 -23.5t-26.5 -46t-70.5 -22.5zM240 1128.5q-4 6.5 40 51.5t117.5 107.5t137.5 98.5q49 31 94 31q27 0 43 -16.5t16 -40.5q0 -49 -84 -98q-70 -41 -158 -76t-145 -49.5t-61 -8z" />
<glyph unicode="&#xee;" horiz-adv-x="497" d="M258 -16q-182 0 -135 221l164 770h133l-164 -768q-16 -74 4.5 -102.5t93.5 -28.5q4 0 1 -23.5t-26.5 -46t-70.5 -22.5zM166 1124q-39 0 -39 35q0 61 137 176q41 35 87 69t73 51.5t31 17.5t23.5 -18.5t49 -50.5t54.5 -63q80 -104 80 -157q0 -59 -50 -60q-25 0 -49 28 t-65 97l-60 105l-104 -109q-117 -121 -168 -121z" />
<glyph unicode="&#xef;" horiz-adv-x="497" d="M258 -16q-182 0 -135 221l164 770h133l-164 -768q-16 -74 4.5 -102.5t93.5 -28.5q4 0 1 -23.5t-26.5 -46t-70.5 -22.5zM573 1122q-100 0 -100 78q0 49 27.5 84t77.5 35q100 0 100 -78q0 -49 -28 -84t-77 -35zM229 1122q-100 0 -100 78q0 49 27.5 84t76.5 35 q100 0 101 -78q0 -49 -28 -84t-77 -35z" />
<glyph unicode="&#xf0;" horiz-adv-x="1183" d="M473 971q-4 -2 -13 5t-17.5 22.5t-8.5 35.5q0 49 70 86l180 99q-133 72 -287 81q-2 4 -4 29t25.5 53.5t77.5 28.5q152 0 319 -125l236 135q4 2 13 -5t17.5 -22.5t8.5 -35.5q0 -49 -70 -86l-117 -64q270 -270 187 -690q-51 -248 -209 -405q-137 -137 -346 -138 q-201 0 -325 103.5t-124 288.5q0 211 143.5 358t372.5 147q131 0 233.5 -58t143.5 -138q12 299 -195 475zM530 90q158 0 268.5 110.5t153.5 338.5q-27 82 -127 149.5t-225 67.5q-190 0 -285.5 -108.5t-95.5 -282.5q0 -129 87 -202t224 -73z" />
<glyph unicode="&#xf1;" horiz-adv-x="1169" d="M928 -16q-61 0 -96 38.5t-35 106.5q0 66 53 260q51 182 51 256q0 106 -58.5 167.5t-164.5 61.5q-111 0 -190.5 -57t-151.5 -178l-135 -639h-133l208 977q0 6 29 6q100 0 74 -141l-6 -27q117 184 323 184q158 0 250 -92t92 -237q0 -82 -59 -299q-49 -172 -49 -221 q0 -39 20.5 -55.5t65.5 -20.5q4 0 1 -22.5t-24.5 -45t-64.5 -22.5zM885 1122q-51 0 -129 44t-156 120q-63 -150 -110.5 -149.5t-47.5 41.5q0 70 51.5 133t112.5 63q51 0 129 -44t156 -120q63 150 110.5 150t47.5 -41q0 -70 -51.5 -133.5t-112.5 -63.5z" />
<glyph unicode="&#xf2;" horiz-adv-x="1196" d="M549 -25q-188 0 -318.5 127t-130.5 326q0 231 158 401t391 170q188 0 318.5 -127t130.5 -325q0 -231 -158 -401.5t-391 -170.5zM557 92q168 0 287 134t119 317q0 145 -93.5 242.5t-228.5 97.5q-168 0 -286.5 -134.5t-118.5 -316.5q0 -145 93 -242.5t228 -97.5z M803 1128.5q-6 -6.5 -57.5 11t-125 56.5t-131.5 86q-61 51 -61 100q0 25 20.5 42.5t45.5 17.5q43 0 92 -43q55 -45 109.5 -109.5t84 -109.5t23.5 -51.5z" />
<glyph unicode="&#xf3;" horiz-adv-x="1196" d="M549 -25q-188 0 -318.5 127t-130.5 326q0 231 158 401t391 170q188 0 318.5 -127t130.5 -325q0 -231 -158 -401.5t-391 -170.5zM557 92q168 0 287 134t119 317q0 145 -93.5 242.5t-228.5 97.5q-168 0 -286.5 -134.5t-118.5 -316.5q0 -145 93 -242.5t228 -97.5z M569 1128.5q-4 6.5 40 51.5t118 107.5t137 98.5q49 31 94 31q25 0 42.5 -16.5t17.5 -40.5q0 -49 -84 -98q-70 -41 -158 -76t-145.5 -49.5t-61.5 -8z" />
<glyph unicode="&#xf4;" horiz-adv-x="1196" d="M549 -25q-188 0 -318.5 127t-130.5 326q0 231 158 401t391 170q188 0 318.5 -127t130.5 -325q0 -231 -158 -401.5t-391 -170.5zM557 92q168 0 287 134t119 317q0 145 -93.5 242.5t-228.5 97.5q-168 0 -286.5 -134.5t-118.5 -316.5q0 -145 93 -242.5t228 -97.5zM475 1124 q-39 0 -39 35q0 61 137 176q41 35 87.5 69t73 51.5t30.5 17.5t23.5 -18.5t49 -50.5t54.5 -63q80 -104 80 -157q0 -59 -49 -60q-25 0 -49.5 28t-65.5 97l-59 105l-105 -109q-117 -121 -168 -121z" />
<glyph unicode="&#xf5;" horiz-adv-x="1196" d="M549 -25q-188 0 -318.5 127t-130.5 326q0 231 158 401t391 170q188 0 318.5 -127t130.5 -325q0 -231 -158 -401.5t-391 -170.5zM557 92q168 0 287 134t119 317q0 145 -93.5 242.5t-228.5 97.5q-168 0 -286.5 -134.5t-118.5 -316.5q0 -145 93 -242.5t228 -97.5zM858 1122 q-51 0 -129 44t-156 120q-63 -150 -110 -149.5t-47 41.5q0 70 51 133t113 63q51 0 128.5 -44t155.5 -120q63 150 110.5 150t47.5 -41q0 -70 -51.5 -133.5t-112.5 -63.5z" />
<glyph unicode="&#xf6;" horiz-adv-x="1196" d="M549 -25q-188 0 -318.5 127t-130.5 326q0 231 158 401t391 170q188 0 318.5 -127t130.5 -325q0 -231 -158 -401.5t-391 -170.5zM557 92q168 0 287 134t119 317q0 145 -93.5 242.5t-228.5 97.5q-168 0 -286.5 -134.5t-118.5 -316.5q0 -145 93 -242.5t228 -97.5zM883 1122 q-100 0 -101 78q0 49 28 84t77 35q100 0 100 -78q0 -49 -27.5 -84t-76.5 -35zM539 1122q-100 0 -101 78q0 49 28 84t77 35q100 0 100 -78q0 -49 -27.5 -84t-76.5 -35z" />
<glyph unicode="&#xf7;" horiz-adv-x="1298" d="M725 776q-98 0 -98 70q0 74 32 106q27 27 76 27q98 0 99 -70q0 -74 -33 -106q-27 -27 -76 -27zM586 121q-98 0 -99 69q0 74 33 107q27 27 76 27q98 0 98 -70q0 -74 -32 -107q-27 -26 -76 -26zM276 487q-68 0 -53 56l4 14q14 55 76 55h744q68 0 51 -55l-4 -14 q-8 -31 -23.5 -43.5t-50.5 -12.5h-744z" />
<glyph unicode="&#xf8;" horiz-adv-x="1196" d="M72 -53q-4 -4 -17.5 4t-26 24.5t-12.5 34.5q0 43 54 88l98 86q-68 106 -68 244q0 231 158 401t391 170q176 0 303 -116l160 143q4 4 17.5 -4t25.5 -24.5t12 -34.5q0 -41 -53 -89l-88 -77q72 -111 72 -250q0 -231 -158 -401.5t-391 -170.5q-184 0 -309 121zM557 92 q168 0 287 134t119 317q0 90 -39 168l-592 -527q88 -92 225 -92zM236 432q0 -92 36 -164l588 527q-92 88 -219 88q-168 0 -286.5 -134.5t-118.5 -316.5z" />
<glyph unicode="&#xf9;" horiz-adv-x="1169" d="M932 -16q-156 0 -137 178q-53 -88 -139.5 -137.5t-184.5 -49.5q-193 0 -280 125t-44 324l117 551h133l-118 -561q-31 -141 25 -227.5t185 -86.5q111 0 191 57.5t151 178.5l136 639h133l-164 -768q-16 -74 2 -101.5t86 -29.5q4 0 1 -23.5t-25.5 -46t-67.5 -22.5z M784.5 1128.5q-6.5 -6.5 -57.5 11t-125 56.5t-131 86q-61 51 -61 100q0 25 20.5 42.5t44.5 17.5q41 0 92 -43q55 -45 109.5 -109.5t84.5 -109.5t23.5 -51.5z" />
<glyph unicode="&#xfa;" horiz-adv-x="1169" d="M932 -16q-156 0 -137 178q-53 -88 -139.5 -137.5t-184.5 -49.5q-193 0 -280 125t-44 324l117 551h133l-118 -561q-31 -141 25 -227.5t185 -86.5q111 0 191 57.5t151 178.5l136 639h133l-164 -768q-16 -74 2 -101.5t86 -29.5q4 0 1 -23.5t-25.5 -46t-67.5 -22.5z M575.5 1128.5q-4.5 6.5 39.5 51.5t118 107.5t137 98.5q49 31 95 31q27 0 43 -16.5t16 -40.5q0 -49 -84 -98q-70 -41 -158 -76t-145 -49.5t-61.5 -8z" />
<glyph unicode="&#xfb;" horiz-adv-x="1169" d="M932 -16q-156 0 -137 178q-53 -88 -139.5 -137.5t-184.5 -49.5q-193 0 -280 125t-44 324l117 551h133l-118 -561q-31 -141 25 -227.5t185 -86.5q111 0 191 57.5t151 178.5l136 639h133l-164 -768q-16 -74 2 -101.5t86 -29.5q4 0 1 -23.5t-25.5 -46t-67.5 -22.5zM481 1124 q-39 0 -39 35q0 61 138 176q41 35 87 69t72.5 51.5t30.5 17.5t23.5 -18.5t49 -50.5t54.5 -63q80 -104 80 -157q0 -59 -49 -60q-25 0 -49.5 28t-65.5 97l-59 105l-105 -109q-117 -121 -168 -121z" />
<glyph unicode="&#xfc;" horiz-adv-x="1169" d="M932 -16q-156 0 -137 178q-53 -88 -139.5 -137.5t-184.5 -49.5q-193 0 -280 125t-44 324l117 551h133l-118 -561q-31 -141 25 -227.5t185 -86.5q111 0 191 57.5t151 178.5l136 639h133l-164 -768q-16 -74 2 -101.5t86 -29.5q4 0 1 -23.5t-25.5 -46t-67.5 -22.5zM545 1122 q-100 0 -101 78q0 49 28 84t77 35q100 0 100 -78q0 -49 -27.5 -84t-76.5 -35zM889 1122q-100 0 -101 78q0 49 28 84t77 35q100 0 100 -78q0 -49 -27.5 -84t-76.5 -35z" />
<glyph unicode="&#xfd;" horiz-adv-x="1019" d="M18 -418q-104 0 -151 47q-25 25 -25 58q0 20 12.5 37.5t26 26.5t17.5 5q18 -23 53 -38t59 -15q63 0 133 62.5t189 236.5l33 47q-61 8 -72 88l-57 539q-10 106 -47 153.5t-107 47.5q-2 0 -2 11t3 26.5t12 31t32 26.5t57 11q53 0 90 -37q74 -74 93 -282l49 -543l520 854 h145l-620 -1000q-145 -231 -238.5 -312t-204.5 -81zM522 1108q-4 6 40 51t118 107.5t137 99.5q49 31 94 31q27 0 43.5 -16.5t16.5 -41.5q0 -49 -84 -98q-70 -41 -158 -76t-145.5 -49t-61.5 -8z" />
<glyph unicode="&#xfe;" horiz-adv-x="1228" d="M598 -25q-127 0 -218 61.5t-138 158.5l-113 -535q-14 -63 -61 -63h-17q-68 0 -55 63l354 1671q8 35 21.5 49.5t40.5 14.5h16q68 0 55 -64l-112 -524q141 193 358 192q166 0 283.5 -114.5t117.5 -317.5q0 -233 -151.5 -412.5t-380.5 -179.5zM712.5 883 q-116.5 0 -218 -67.5t-158.5 -178.5l-39 -184q-27 -143 60 -252t249 -109q178 0 283.5 143.5t105.5 331.5q0 145 -83 230.5t-199.5 85.5z" />
<glyph unicode="&#xff;" horiz-adv-x="1019" d="M18 -418q-104 0 -151 47q-25 25 -25 58q0 20 12.5 37.5t26 26.5t17.5 5q18 -23 53 -38t59 -15q63 0 133 62.5t189 236.5l33 47q-61 8 -72 88l-57 539q-10 106 -47 153.5t-107 47.5q-2 0 -2 11t3 26.5t12 31t32 26.5t57 11q53 0 90 -37q74 -74 93 -282l49 -543l520 854 h145l-620 -1000q-145 -231 -238.5 -312t-204.5 -81zM805 1122q-100 0 -100 78q0 49 27.5 84t76.5 35q100 0 100 -78q0 -49 -27.5 -84t-76.5 -35zM461 1122q-100 0 -101 78q0 49 28 84t77 35q100 0 100 -78q0 -49 -27.5 -84t-76.5 -35z" />
<glyph unicode="&#x152;" horiz-adv-x="2160" d="M750 -23q-268 0 -429 162t-161 412q0 340 223 569.5t510 229.5q98 0 180 -25h1106q-2 -10 -6 -35l-8 -40q-6 -30 -8 -38l-5 -14h-849q180 -164 180 -422v-35h428l-6 -32q-2 -10 -8.5 -39t-8.5 -37l-4 -15h-416q-59 -303 -307 -491h774q-2 -10 -6 -35l-8 -40 q-6 -30 -8 -38l-4 -14h-998q-83 -23 -161 -23zM764 98q221 0 396 191.5t175 476.5q0 199 -121.5 331t-334.5 132q-221 0 -396.5 -191.5t-175.5 -476.5q0 -199 122 -331t335 -132z" />
<glyph unicode="&#x153;" horiz-adv-x="1961" d="M1061 702q80 137 213 217t291 80q162 0 255 -70.5t93 -187.5q0 -156 -127 -233.5t-440 -77.5q-109 0 -259 12q-2 -20 -2 -61q0 -133 76 -212t217 -79q209 0 330 162q2 4 19.5 -2t34 -22.5t16.5 -39.5q0 -41 -45 -86q-127 -127 -359 -127q-145 0 -244.5 68t-138.5 182 q-74 -115 -190.5 -182.5t-255.5 -67.5q-188 0 -316.5 124t-128.5 329q0 231 156 401t387 170q150 0 261.5 -79t156.5 -218zM557 92q168 0 287 134t119 317q0 145 -93.5 242.5t-228.5 97.5q-168 0 -286.5 -134.5t-118.5 -316.5q0 -145 93 -242.5t228 -97.5zM1559 883 q-150 0 -271 -92.5t-172 -235.5q98 -12 217 -12q444 0 445 196q0 59 -57.5 101.5t-161.5 42.5z" />
<glyph unicode="&#x178;" horiz-adv-x="1193" d="M424 0l119 557l-318 768h146l260 -647l559 659q6 6 40 -9t43 -52t-59 -121l-536 -612l-115 -543h-139zM612 1450q-100 0 -100 78q0 49 27.5 84t76.5 35q100 0 101 -78q0 -49 -28 -84t-77 -35zM956 1450q-100 0 -100 78q0 49 27.5 84t77.5 35q100 0 100 -78q0 -49 -28 -84 t-77 -35z" />
<glyph unicode="&#x2c6;" horiz-adv-x="1093" d="M465 1124q-39 0 -39 35q0 61 137 176q41 35 87 69t73 51.5t31 17.5t23.5 -18.5t49 -50.5t54.5 -63q80 -104 80 -157q0 -59 -50 -60q-25 0 -49 28t-65 97l-60 105l-104 -109q-117 -121 -168 -121z" />
<glyph unicode="&#x2dc;" horiz-adv-x="1093" d="M848 1122q-51 0 -129 44t-156 120q-63 -150 -110 -149.5t-47 41.5q0 70 51 133t112 63q51 0 129 -44t156 -120q63 150 110.5 150t47.5 -41q0 -70 -51.5 -133.5t-112.5 -63.5z" />
<glyph unicode="&#x2000;" horiz-adv-x="909" />
<glyph unicode="&#x2001;" horiz-adv-x="1820" />
<glyph unicode="&#x2002;" horiz-adv-x="909" />
<glyph unicode="&#x2003;" horiz-adv-x="1820" />
<glyph unicode="&#x2004;" horiz-adv-x="606" />
<glyph unicode="&#x2005;" horiz-adv-x="454" />
<glyph unicode="&#x2006;" horiz-adv-x="303" />
<glyph unicode="&#x2007;" horiz-adv-x="303" />
<glyph unicode="&#x2008;" horiz-adv-x="227" />
<glyph unicode="&#x2009;" horiz-adv-x="362" />
<glyph unicode="&#x200a;" horiz-adv-x="100" />
<glyph unicode="&#x2010;" horiz-adv-x="819" d="M135 434v123h555v-123h-555z" />
<glyph unicode="&#x2011;" horiz-adv-x="819" d="M135 434v123h555v-123h-555z" />
<glyph unicode="&#x2012;" horiz-adv-x="819" d="M135 434v123h555v-123h-555z" />
<glyph unicode="&#x2013;" horiz-adv-x="1144" d="M186 436q-59 0 -59 33q0 47 25 72q14 14 49 14h764q59 0 59 -33q0 -47 -25 -71q-14 -14 -49 -15h-764z" />
<glyph unicode="&#x2014;" horiz-adv-x="1488" d="M186 436q-59 0 -59 33q0 47 25 72q14 14 49 14h1108q59 0 59 -33q0 -47 -25 -71q-14 -14 -49 -15h-1108z" />
<glyph unicode="&#x2018;" horiz-adv-x="483" d="M342 870q-6 -2 -34.5 -1t-60.5 19.5t-32 49.5q0 43 39 92l264 332q10 12 40 -6.5t22 -34.5z" />
<glyph unicode="&#x2019;" horiz-adv-x="483" d="M231 864q-10 -12 -39.5 6.5t-21.5 34.5l238 451q6 2 34.5 1t60.5 -19.5t32 -49.5q0 -43 -39 -92z" />
<glyph unicode="&#x201a;" horiz-adv-x="497" d="M-35 -291q-10 -12 -39.5 6.5t-21.5 34.5l237 451q6 2 35 1t60.5 -19.5t31.5 -49.5q0 -43 -39 -92z" />
<glyph unicode="&#x201c;" horiz-adv-x="796" d="M342 872q-6 -2 -34.5 -1t-60.5 19.5t-32 49.5q0 43 39 92l264 332q10 12 40 -6.5t22 -34.5zM655 870q-6 -2 -34.5 -1t-60.5 19.5t-32 49.5q0 43 39 92l264 332q10 12 40 -6.5t22 -34.5z" />
<glyph unicode="&#x201d;" horiz-adv-x="796" d="M231 864q-10 -12 -39.5 6.5t-21.5 34.5l238 451q6 2 34.5 1t60.5 -19.5t32 -49.5q0 -43 -39 -92zM545 862q-10 -12 -40 6.5t-22 34.5l238 451q6 2 34.5 1t60.5 -19.5t32 -49.5q0 -43 -39 -92z" />
<glyph unicode="&#x201e;" horiz-adv-x="811" d="M-35 -291q-10 -12 -39.5 6.5t-21.5 34.5l237 451q6 2 35 1t60.5 -19.5t31.5 -49.5q0 -43 -39 -92zM279 -293q-10 -12 -40 6.5t-22 34.5l238 451q6 2 34.5 1t60.5 -19.5t32 -49.5q0 -43 -39 -92z" />
<glyph unicode="&#x2022;" horiz-adv-x="733" d="M369 285q-88 0 -148.5 61.5t-60.5 149.5t60.5 150.5t148.5 62.5t148.5 -62.5t60.5 -150.5t-60.5 -149.5t-148.5 -61.5z" />
<glyph unicode="&#x2026;" horiz-adv-x="1353" d="M1016 -12q-98 0 -98 69q0 74 32 107q27 27 76 26q98 0 98 -69q0 -74 -32 -107q-27 -26 -76 -26zM588 -12q-98 0 -99 69q0 74 33 107q27 27 76 26q98 0 98 -69q0 -74 -32 -107q-27 -26 -76 -26zM160 -12q-98 0 -99 69q0 74 33 107q27 27 76 26q98 0 98 -69q0 -74 -32 -107 q-27 -26 -76 -26z" />
<glyph unicode="&#x202f;" horiz-adv-x="362" />
<glyph unicode="&#x2039;" horiz-adv-x="708" d="M457 160q-74 0 -191 143q-55 68 -96 133.5t-37 77.5q2 6 32 36t81 74t102 83q168 129 240 129q47 0 47 -50q0 -31 -62.5 -88t-152.5 -112q-6 -4 -68.5 -43t-97.5 -58q59 -47 127 -110q76 -72 103.5 -105.5t27.5 -62.5q0 -18 -16 -32.5t-39 -14.5z" />
<glyph unicode="&#x203a;" horiz-adv-x="708" d="M129 160q-47 0 -47 49q0 31 62.5 88t152.5 113q6 4 68.5 43t97.5 57q-59 47 -127 111q-76 72 -103.5 105.5t-27.5 61.5q0 18 16.5 33t38.5 15q74 0 191 -144q55 -68 96 -133t37 -78q-2 -6 -32 -35.5t-81 -73.5t-102 -83q-168 -129 -240 -129z" />
<glyph unicode="&#x205f;" horiz-adv-x="454" />
<glyph unicode="&#x20ac;" horiz-adv-x="1351" d="M238 770q-59 0 -60 33q0 47 25 71q14 14 49 15h145q74 190 181 297q164 164 395 164q190 0 307 -117q72 -72 72 -164q0 -37 -23.5 -61.5t-45 -25.5t-26.5 1q-59 250 -301 250q-164 0 -284 -121q-80 -80 -140 -223h443q59 0 59 -33q0 -47 -24 -72q-14 -14 -49 -14h-469 q-27 -106 -37 -205h450q59 0 60 -33q0 -47 -25 -71q-14 -14 -49 -15h-440q10 -156 98 -254t231 -98q199 0 336 201q2 4 18.5 -2t32 -24.5t15.5 -41.5q0 -51 -66 -116q-57 -57 -148 -96.5t-184 -39.5q-223 0 -344 126t-129 345h-143q-59 0 -59 33q0 47 24 72q14 14 49 14h133 q14 111 41 205h-118z" />
<glyph unicode="&#x2122;" horiz-adv-x="1456" d="M895 698q-43 0 -43 52v524q0 59 53 59h51q43 0 62 -45l129 -319l129 319q20 45 61 45h47q53 0 54 -59v-524q0 -51 -45 -52h-15q-43 0 -43 52v436l-133 -330q-10 -29 -57 -29q-23 0 -34 4.5t-14 8.5t-7 16l-136 328v-434q0 -51 -41 -52h-18zM465 698q-45 0 -45 52v479 h-166q-49 0 -49 45v8q0 45 49 45h438q49 0 49 -45v-8q0 -45 -49 -45h-164v-479q0 -51 -49 -52h-14z" />
<glyph unicode="&#xe000;" horiz-adv-x="995" d="M0 995h995v-995h-995v995z" />
<glyph unicode="&#xfb01;" horiz-adv-x="1173" d="M158 0l182 856h-197l7 33l16 72l2 14h197l26 119q68 317 318 317q115 0 172 -57q29 -29 28 -66q0 -20 -12 -38.5t-24.5 -27t-14.5 -3.5q-51 74 -156 73q-141 0 -186 -217l-22 -100h254l-7 -33l-16 -72l-2 -14h-252l-180 -856h-133zM934 -16q-182 0 -135 221l164 770h133 l-164 -768q-16 -74 4 -102.5t94 -28.5q4 0 1 -23.5t-26.5 -46t-70.5 -22.5zM1100 1221q-90 0 -90 67q0 43 24.5 74t69.5 31q90 0 90 -68q0 -43 -24.5 -73.5t-69.5 -30.5z" />
<glyph unicode="&#xfb02;" horiz-adv-x="1173" d="M158 0l182 856h-197l7 33l16 72l2 14h197l26 119q68 317 318 317q115 0 172 -57q29 -29 28 -66q0 -20 -12 -38.5t-24.5 -27t-14.5 -3.5q-51 74 -156 73q-141 0 -186 -217l-22 -100h254l-7 -33l-16 -72l-2 -14h-252l-180 -856h-133zM934 -16q-182 0 -135 221l252 1181h133 l-252 -1179q-16 -74 4 -102.5t94 -28.5q4 0 1 -23.5t-26.5 -46t-70.5 -22.5z" />
<glyph unicode="&#xfb03;" horiz-adv-x="1988" d="M1749 -16q-145 0 -145 139q0 36 10 82l164 770h133l-164 -768q-7 -33 -7 -57q0 -30 11 -46q20 -29 94 -28q4 0 1 -23.5t-26.5 -46t-70.5 -22.5zM1915 1221q-90 0 -90 67q0 43 24.5 74t69.5 31q90 0 90 -68q0 -43 -24.5 -73.5t-69.5 -30.5zM903 0l182 856h-197l7 33l16 72 l2 14h197l26 119q68 317 318 317q115 0 172 -57q29 -29 28 -66q0 -20 -12 -38.5t-24.5 -27t-14.5 -3.5q-51 74 -156 73q-141 0 -186 -217l-22 -100h254l-7 -33l-16 -72l-2 -14h-252l-180 -856h-133zM158 0l182 856h-197l7 33l16 72l2 14h197l26 119q68 317 318 317 q115 0 172 -57q29 -29 28 -66q0 -20 -12 -38.5t-24.5 -27t-14.5 -3.5q-51 74 -156 73q-141 0 -186 -217l-22 -100h254l-7 -33l-16 -72l-2 -14h-252l-180 -856h-133z" />
<glyph unicode="&#xfb04;" horiz-adv-x="1988" d="M1749 -16q-145 0 -145 139q0 36 10 82l252 1181h133l-252 -1179q-7 -33 -7 -57q0 -30 11 -46q20 -29 94 -28q4 0 1 -23.5t-26.5 -46t-70.5 -22.5zM903 0l182 856h-197l7 33l16 72l2 14h197l26 119q68 317 318 317q115 0 172 -57q29 -29 28 -66q0 -20 -12 -38.5t-24.5 -27 t-14.5 -3.5q-51 74 -156 73q-141 0 -186 -217l-22 -100h254l-7 -33l-16 -72l-2 -14h-252l-180 -856h-133zM158 0l182 856h-197l7 33l16 72l2 14h197l26 119q68 317 318 317q115 0 172 -57q29 -29 28 -66q0 -20 -12 -38.5t-24.5 -27t-14.5 -3.5q-51 74 -156 73 q-141 0 -186 -217l-22 -100h254l-7 -33l-16 -72l-2 -14h-252l-180 -856h-133z" />
</font>
</defs>
</svg>
