<?xml version="1.0" standalone="no"?>
<!DOCTYPE svg PUBLIC "-//W3C//DTD SVG 1.1//EN" "http://www.w3.org/Graphics/SVG/1.1/DTD/svg11.dtd" >
<svg xmlns="http://www.w3.org/2000/svg">
<metadata>
This is a custom SVG webfont generated by Font Squirrel.
Copyright   : Generated in 2010 by FontLab Studio Copyright info pending
</metadata>
<defs>
<font id="webfontWveFu6u9" horiz-adv-x="1579" >
<font-face units-per-em="2048" ascent="1434" descent="-614" />
<missing-glyph horiz-adv-x="348" />
<glyph unicode=" "  horiz-adv-x="348" />
<glyph unicode="&#x09;" horiz-adv-x="348" />
<glyph unicode="&#xa0;" horiz-adv-x="348" />
<glyph unicode="!" horiz-adv-x="593" d="M285 385q-37 0 -49 70l-70 870h264l-72 -870q-4 -37 -15 -53.5t-36 -16.5h-22zM283 -14q-111 0 -111 110v25q0 113 111 112h26q113 0 113 -112v-25q0 -111 -113 -110h-26z" />
<glyph unicode="&#x22;" horiz-adv-x="858" d="M244 768q-41 0 -49 63l-66 494h254l-64 -494q-8 -63 -49 -63h-26zM588 768q-41 0 -49 63l-66 494h254l-63 -494q-8 -63 -50 -63h-26z" />
<glyph unicode="#" horiz-adv-x="1419" d="M70 334v162h274l102 333h-223v162h273l104 340q0 8 27 8q35 0 66.5 -27.5t31.5 -80.5q0 -25 -16 -78l-52 -162h306l104 340q4 8 29 8q35 0 65.5 -27.5t30.5 -80.5q0 -25 -16 -78l-50 -162h224v-162h-275l-102 -333h223v-162h-272l-103 -340q-4 -8 -28 -8q-35 0 -66 27.5 t-31 80.5q0 25 15 78l49 162h-303l-105 -340q0 -8 -26 -8q-35 0 -67 27.5t-32 80.5q0 29 17 78l49 162h-223zM606 834l-104 -342h311l105 342h-312z" />
<glyph unicode="$" horiz-adv-x="1187" d="M502 -211v199q-176 18 -288 97t-112 161q0 33 21.5 60.5t44 39.5t27.5 8q47 -72 130 -123t185 -67v432q-80 20 -137.5 44t-116.5 64.5t-90 106.5t-31 154q0 141 102.5 242.5t268.5 125.5v197h178v-193q166 -16 267.5 -85.5t101.5 -143.5q0 -33 -22.5 -61.5t-46 -42 t-26.5 -9.5q-98 139 -284 168v-415q86 -20 147.5 -45t126 -67t98 -109.5t33.5 -157.5q0 -152 -108.5 -255.5t-290.5 -123.5v-201h-178zM872 360.5q0 75.5 -52 120.5t-152 76v-395q94 14 149 68.5t55 130zM336 969q0 -72 45 -113t135 -70v373q-82 -18 -131 -69t-49 -121z" />
<glyph unicode="%" horiz-adv-x="1566" d="M407.5 705q-137.5 0 -227.5 88t-90 221v18q0 133 91 223.5t228.5 90.5t228.5 -88.5t91 -221.5v-18q0 -133 -92 -223t-229.5 -90zM281 -18q-4 -6 -28 1t-45.5 27.5t-21.5 46.5q0 47 60 109l1030 1186q4 4 26.5 -2.5t45 -25.5t22.5 -48q0 -45 -57 -111zM1157 -12 q-137 0 -228 88t-91 221v18q0 133 92 223.5t229 90.5t227.5 -88t90.5 -222v-18q0 -133 -91.5 -223t-228.5 -90zM409.5 834q71.5 0 116.5 49t45 127v30q0 78 -46 128.5t-117.5 50.5t-116.5 -49.5t-45 -129.5v-30q0 -76 46 -126t117.5 -50zM1159 117q70 0 116 49t46 127v31 q0 78 -46 128t-118 50t-117 -49.5t-45 -128.5v-31q0 -76 46 -126t118 -50z" />
<glyph unicode="&#x26;" horiz-adv-x="1427" d="M553 -27q-219 0 -349 105.5t-130 294.5q0 279 332 381q-117 127 -117 268t103.5 235.5t266.5 94.5q150 0 247.5 -88t97.5 -224q0 -231 -310 -323l312 -279q102 158 163 383h177q-18 -111 -83 -253t-135 -242l279 -250q4 -2 -5 -23.5t-38 -42t-70 -20.5q-74 0 -133 61 l-141 135q-195 -213 -467 -213zM567 133q190 0 334 164l-397 358q-233 -76 -234 -266q0 -119 82 -187.5t215 -68.5zM479 1022q0 -113 107 -215q127 35 185 88t58 135q0 72 -48 121t-124 49q-84 0 -131 -50t-47 -128z" />
<glyph unicode="'" horiz-adv-x="516" d="M244 768q-41 0 -49 63l-66 494h254l-64 -494q-8 -63 -49 -63h-26z" />
<glyph unicode="(" horiz-adv-x="829" d="M694 -406q-96 0 -197.5 63.5t-185.5 173.5t-138 277.5t-54 356.5q0 184 54 350t138 277.5t185.5 177t197.5 65.5q94 0 94 -82q0 -20 -12 -43.5t-18 -27.5q-201 -45 -316.5 -246t-115.5 -469q0 -274 115.5 -474t316.5 -247q6 -2 18 -24.5t12 -45.5q0 -82 -94 -82z" />
<glyph unicode=")" horiz-adv-x="829" d="M135 -406q-94 0 -94 82q0 23 12.5 45.5t18.5 24.5q201 47 316.5 247t115.5 474q0 268 -116 469t-316 246q-6 4 -18.5 27.5t-12.5 43.5q0 82 94 82q96 0 197.5 -65.5t185.5 -177t138.5 -277.5t54.5 -350q0 -188 -54.5 -356t-138.5 -278t-185.5 -173.5t-197.5 -63.5z" />
<glyph unicode="*" horiz-adv-x="864" d="M215 674l-6 4q-45 27 -12 86l106 174l-184 78q-35 14 -42 31.5t1 44.5l2 8q14 47 78 37l198 -50l17 199q4 39 17 51.5t42 12.5h8q27 0 41.5 -13.5t18.5 -50.5l12 -199l199 50q63 10 80 -37l2 -8q8 -27 0.5 -44.5t-41.5 -31.5l-189 -78l109 -174q33 -55 -13 -86l-6 -4 q-41 -31 -84 16l-135 158l-133 -158q-43 -45 -86 -16z" />
<glyph unicode="+" horiz-adv-x="1163" d="M199 459q-88 0 -88 76v12q0 76 88 76h297v303q0 88 77 88h17q78 0 78 -88v-303h297q88 0 88 -76v-12q0 -76 -88 -76h-297v-322q0 -88 -78 -88h-17q-78 0 -77 88v322h-297z" />
<glyph unicode="," horiz-adv-x="516" d="M160 -250q-20 -29 -67.5 -12.5t-35.5 59.5l111 348q16 53 35.5 75t68.5 22h19q86 0 86 -97v-10q0 -61 -47 -123z" />
<glyph unicode="-" horiz-adv-x="866" d="M115 406v186h637v-186h-637z" />
<glyph unicode="." horiz-adv-x="516" d="M244 -14q-111 0 -111 110v25q0 113 111 112h26q113 0 113 -112v-25q0 -111 -113 -110h-26z" />
<glyph unicode="/" horiz-adv-x="755" d="M2 -414l53 176l490 1577h190q-45 -141 -55 -176l-487 -1577h-191z" />
<glyph unicode="0" horiz-adv-x="1361" d="M680 -27q-258 0 -404.5 166t-146.5 455v135q0 287 148.5 455t402.5 168q258 0 405.5 -166t147.5 -455v-133q0 -289 -148.5 -457t-404.5 -168zM680 152q164 0 253 113.5t89 322.5v147q0 209 -90 326t-252 117t-250 -115t-88 -324v-149q0 -209 89 -323.5t249 -114.5z" />
<glyph unicode="1" horiz-adv-x="811" d="M373 0v1036q-55 -55 -137 -55q-72 0 -118 39t-46 102q0 31 13 57.5t27.5 38t18.5 9.5q51 -47 121 -47q66 0 112 44t54 111h71q92 0 93 -96v-1239h-209z" />
<glyph unicode="2" horiz-adv-x="1157" d="M666 532q-180 -80 -268.5 -154.5t-92.5 -197.5h750v-180h-815q-70 0 -100.5 26.5t-30.5 88.5v51q0 96 32.5 175t100 138.5t126 96t150.5 81.5q190 94 242 136q88 70 88 159q0 102 -71.5 160.5t-198.5 58.5q-254 0 -324 -253q-6 0 -37 -1.5t-66.5 26.5t-35.5 77 q0 119 130 225.5t347 106.5t340 -105.5t123 -290.5q0 -86 -30 -151.5t-93.5 -116.5t-117.5 -82t-148 -74z" />
<glyph unicode="3" horiz-adv-x="1179" d="M1065 371q0 -186 -136 -292t-378 -106q-221 0 -354.5 96.5t-133.5 200.5q0 49 31 77t60.5 33t31.5 -1q39 -113 135.5 -173.5t229.5 -60.5q141 0 224 63.5t83 170.5q0 233 -303 233h-193v164h218q121 0 184 53.5t63 147.5q0 96 -73.5 150.5t-204.5 54.5q-236 0 -324 -201 q-2 -6 -32.5 0t-60.5 32.5t-30 71.5q0 94 129 180.5t320 86.5q229 0 355 -94.5t126 -264.5q0 -215 -225 -282q125 -41 191.5 -129t66.5 -211z" />
<glyph unicode="4" horiz-adv-x="1277" d="M770 0v354h-543q-59 0 -94 28t-35 71v45q0 49 60 131l473 612q41 57 74.5 75.5t105.5 18.5q86 0 122 -31.5t36 -105.5v-672h237v-172h-237v-354h-199zM778 1163l-489 -641h489v641z" />
<glyph unicode="5" horiz-adv-x="1163" d="M324 1145v-379q133 59 272 59q215 0 345 -113.5t130 -303.5q0 -199 -138 -317t-376 -118q-203 0 -338 85t-135 178q0 33 23.5 60.5t48 38.5t28.5 5q121 -197 373 -197q145 0 231 71t86 191.5t-78.5 188.5t-220.5 68q-188 0 -309 -91q-129 8 -129 131v504q0 53 29 86 t80 33h764v-180h-686z" />
<glyph unicode="6" horiz-adv-x="1263" d="M696 1178q-172 0 -265 -116t-93 -331v-41q156 145 377 146q205 0 326.5 -107.5t121.5 -292.5v-10q0 -197 -138 -325t-353 -128q-260 0 -401.5 167t-141.5 448v135q0 293 149.5 461t407.5 168q195 0 308.5 -74t113.5 -162q0 -35 -25.5 -61.5t-52 -35.5t-29.5 -5 q-106 164 -305 164zM670 678q-92 0 -180.5 -42t-149.5 -110q10 -182 93 -283.5t231 -101.5q131 0 214 75t83 194v12q0 123 -76 189.5t-215 66.5z" />
<glyph unicode="7" horiz-adv-x="1146" d="M842 1137h-766v188h868q76 0 103.5 -26.5t27.5 -73.5v-17q0 -43 -61 -153l-535 -992q-39 -74 -108 -73q-33 0 -62.5 17.5t-45 35.5t-9.5 27z" />
<glyph unicode="8" horiz-adv-x="1255" d="M627 -25q-242 0 -381.5 102.5t-139.5 274.5q0 242 269 330q-229 76 -230 299q0 166 132.5 268.5t351.5 102.5q221 0 349 -99.5t128 -267.5q0 -221 -227 -301q268 -82 268 -332q0 -168 -143.5 -272.5t-376.5 -104.5zM629 137q152 0 231.5 61.5t79.5 170.5q0 106 -84 170.5 t-229 64.5q-147 0 -230.5 -63.5t-83.5 -171.5q0 -102 84.5 -167t231.5 -65zM629 756q131 0 203.5 56t72.5 156.5t-73.5 161t-204.5 60.5q-135 0 -207 -58.5t-72 -162.5q0 -96 75 -154.5t206 -58.5z" />
<glyph unicode="9" horiz-adv-x="1263" d="M928 590l-2 28q-152 -143 -375 -143q-205 0 -327 106.5t-122 292.5v9q0 199 139.5 333t352.5 134q252 0 396.5 -162t144.5 -449v-141q0 -307 -145.5 -466t-422.5 -159q-195 0 -307.5 71t-112.5 155q0 35 21.5 62.5t43 37.5t24.5 6q121 -160 323 -160q186 0 277.5 109 t91.5 336zM594 633q92 0 179 42t149 109q-6 190 -89 295t-233 105q-127 0 -211 -82t-84 -203v-10q0 -123 75 -189.5t214 -66.5z" />
<glyph unicode=":" horiz-adv-x="565" d="M268 651q-111 0 -110 111v24q0 111 110 111h27q113 0 113 -111v-24q0 -111 -113 -111h-27zM268 -14q-111 0 -110 110v25q0 113 110 112h27q113 0 113 -112v-25q0 -111 -113 -110h-27z" />
<glyph unicode=";" horiz-adv-x="565" d="M268 651q-111 0 -110 111v24q0 111 110 111h27q113 0 113 -111v-24q0 -111 -113 -111h-27zM184 -250q-20 -29 -67 -12.5t-35 59.5l111 348q16 53 35.5 75t68.5 22h18q86 0 86 -97v-10q0 -61 -47 -123z" />
<glyph unicode="&#x3c;" horiz-adv-x="1011" d="M322 541l466 -238q104 -55 101 -129q-2 -27 -14.5 -50.5t-24.5 -34.5t-19 -9l-649 348q-61 35 -61 112.5t61 112.5l649 351q4 2 17.5 -10.5t26 -36t14.5 -48.5q4 -76 -101 -127z" />
<glyph unicode="=" horiz-adv-x="1163" d="M223 684q-88 0 -88 80v18q0 80 88 80h717q88 0 88 -80v-18q0 -80 -88 -80h-717zM223 205q-88 0 -88 80v20q0 80 88 80h717q88 0 88 -80v-20q0 -80 -88 -80h-717z" />
<glyph unicode="&#x3e;" horiz-adv-x="1009" d="M121 174q-4 74 100 129l465 238l-465 241q-104 53 -100 127q2 25 14 48.5t25.5 36t19.5 10.5l647 -351q61 -35 61.5 -112.5t-61.5 -112.5l-647 -348q-6 -2 -19.5 9t-25.5 34.5t-14 50.5z" />
<glyph unicode="?" horiz-adv-x="1042" d="M385 403q-2 0 0 25q8 104 50 181t95.5 119t104.5 77t87 79t36 101q0 88 -61.5 140.5t-170.5 52.5q-135 0 -204.5 -75t-85.5 -185q-2 -6 -37 -1t-71 32.5t-36 76.5q0 111 116 217.5t322 106.5q197 0 312.5 -97.5t115.5 -251.5q0 -92 -42 -161.5t-100 -112.5l-118 -84 q-59 -41 -101 -101.5t-42 -138.5h-170zM461 -14q-111 0 -111 110v25q0 113 111 112h28q113 0 113 -112v-25q0 -111 -113 -110h-28z" />
<glyph unicode="@" horiz-adv-x="1583" d="M729 338q-121 0 -197.5 88t-76.5 223q0 137 77.5 223t200.5 86t193 -100v96h155v-344q0 -160 119 -159q76 0 117 76.5t41 207.5q0 227 -149.5 367.5t-407.5 140.5q-250 0 -409 -162.5t-159 -418.5q0 -252 164 -416t420 -164q199 0 336 100q37 27 70 27q20 0 36.5 -16.5 t23.5 -35t3 -22.5q-78 -70 -203 -116t-266 -46q-313 0 -504.5 190.5t-191.5 498.5q0 303 190.5 496.5t489.5 193.5q309 0 489 -168t180 -447q0 -195 -80.5 -298t-230.5 -103q-84 0 -142.5 36t-76.5 95q-70 -129 -211 -129zM770 473q66 0 110 40t44 105v101q-45 104 -152 104 q-70 0 -113 -48t-43 -126q0 -80 43 -128t111 -48z" />
<glyph unicode="A" horiz-adv-x="1351" d="M1087 0l-151 389h-530l-150 -389h-215l487 1270q27 68 146 67q70 0 101.5 -16t43.5 -51l496 -1270h-228zM670 1120l-213 -561h426z" />
<glyph unicode="B" horiz-adv-x="1327" d="M172 0v1206q0 53 30.5 86t82.5 33h436q217 0 331.5 -88t114.5 -256q0 -215 -233 -285q143 -33 215 -118.5t72 -206.5q0 -186 -123 -278.5t-381 -92.5h-545zM381 170h321q160 0 231 51t71 166q0 209 -295 209h-328v-426zM381 748h313q117 0 185.5 56t68.5 152 q0 199 -258 199h-309v-407z" />
<glyph unicode="C" horiz-adv-x="1406" d="M788 -27q-295 0 -481 191.5t-186 494.5q0 305 188.5 499t485.5 194q223 0 361 -97.5t138 -183.5q0 -45 -29.5 -73.5t-60 -38t-33.5 -3.5q-55 98 -157.5 151.5t-216.5 53.5q-201 0 -329 -138t-128 -359q0 -219 130 -359.5t331 -140.5q135 0 238.5 62.5t144.5 168.5 q2 6 34.5 -2t64.5 -36.5t32 -73.5q0 -94 -144.5 -202t-382.5 -108z" />
<glyph unicode="D" horiz-adv-x="1447" d="M172 0v1206q0 53 32 86t81 33h323q338 0 528.5 -175t190.5 -484q0 -311 -194.5 -488.5t-534.5 -177.5h-426zM381 182h221q244 0 378 126t134 356q0 225 -135 352t-375 127h-223v-961z" />
<glyph unicode="E" horiz-adv-x="1263" d="M172 0v1206q0 53 30.5 86t82.5 33h866v-188h-768v-371h616v-178h-616v-402h778v-186h-989z" />
<glyph unicode="F" horiz-adv-x="1173" d="M172 0v1206q0 53 30.5 86t82.5 33h813v-186h-717v-422h557v-178h-553v-539h-213z" />
<glyph unicode="G" horiz-adv-x="1519" d="M1303 -8q-115 0 -115 170v24q-131 -211 -440 -211q-283 0 -455 191.5t-172 492.5q0 305 189.5 499t490.5 194q221 0 361.5 -92.5t140.5 -182.5q0 -43 -28 -71.5t-55.5 -35.5t-31.5 -1q-59 96 -163.5 148t-219.5 52q-207 0 -337 -142t-130 -369.5t122 -370t328 -142.5 q160 0 268.5 82t129.5 215v84h-418v172h492q113 0 112 -120v-566q0 -4 -9 -8t-25.5 -8t-34.5 -4z" />
<glyph unicode="H" horiz-adv-x="1464" d="M172 0v1237q0 96 88 96h31q92 0 92 -96v-481h698v481q0 96 88 96h31q92 0 92 -96v-1237h-211v571h-698v-571h-211z" />
<glyph unicode="I" horiz-adv-x="591" d="M190 0v1325h211v-1325h-211z" />
<glyph unicode="J" horiz-adv-x="1011" d="M430 -27q-152 0 -252 66.5t-100 146.5q0 37 23.5 67t47 42t25.5 6q80 -145 240 -145q121 0 174 67.5t53 225.5v876h211v-879q0 -242 -104.5 -357.5t-317.5 -115.5z" />
<glyph unicode="K" horiz-adv-x="1253" d="M172 0v1237q0 96 88 96h31q92 0 92 -96v-532l530 561q55 68 117 67q41 0 69.5 -22.5t38 -44t7.5 -27.5l-529 -561l543 -594q2 -2 2 -6q0 -7 -7 -22q-11 -22 -43 -43t-73 -21q-68 0 -114 59l-541 590v-641h-211z" />
<glyph unicode="L" horiz-adv-x="1142" d="M172 0v1237q0 96 88 96h31q92 0 92 -96v-1047h575q98 0 99 -90v-8q0 -92 -99 -92h-786z" />
<glyph unicode="M" horiz-adv-x="1595" d="M172 0v1217q0 53 33 84.5t88 31.5h55q57 0 84 -22.5t53 -83.5l314 -707l315 707q27 61 53.5 83.5t81.5 22.5h51q57 0 91 -31.5t34 -84.5v-1217h-200v1061l-293 -660q-20 -47 -47 -68.5t-88 -21.5q-63 0 -88 20.5t-47 69.5l-289 654v-1055h-201z" />
<glyph unicode="N" horiz-adv-x="1458" d="M172 0v1214q0 55 25.5 87t74.5 32h35q45 0 69.5 -17.5t57.5 -62.5l656 -929v1001h198v-1214q0 -55 -26.5 -87t-71.5 -32h-16q-45 0 -66 13t-47 50l-690 977v-1032h-199z" />
<glyph unicode="O" d="M788 -27q-297 0 -483 191.5t-186 495t189.5 498t482.5 194.5q297 0 483 -191.5t186 -496.5q0 -303 -188.5 -497t-483.5 -194zM790.5 160q200.5 0 328.5 139t128 360.5t-129 363.5t-329.5 142t-328.5 -139t-128 -362q0 -221 129 -362.5t329.5 -141.5z" />
<glyph unicode="P" horiz-adv-x="1226" d="M172 0v1206q0 53 30.5 86t82.5 33h342q246 0 380 -109.5t134 -312.5q0 -209 -133.5 -317.5t-389.5 -108.5h-235v-477h-211zM381 1151v-504h242q307 0 307 252t-305 252h-244z" />
<glyph unicode="Q" d="M1346 -27q-61 0 -123 68l-52 51q-168 -119 -383 -119q-295 0 -482 191.5t-187 495t189.5 498t484 194.5t481 -192.5t186.5 -495.5q0 -254 -151 -445l157 -162q4 -6 -9 -25.5t-43.5 -39t-67.5 -19.5zM793 160q143 0 251 67l-260 267l129 122l256 -262q82 123 82 305 q0 221 -129 363.5t-331.5 142.5t-330.5 -141t-128 -360q0 -221 130 -362.5t331 -141.5z" />
<glyph unicode="R" horiz-adv-x="1267" d="M1026 -8q-76 0 -137 82l-363 444h-145v-518h-209v1206q0 53 30.5 86t82.5 33h377q244 0 369.5 -100.5t125.5 -296.5q0 -170 -102.5 -272.5t-292.5 -116.5l387 -461q6 -6 -6.5 -26.5t-44 -40t-72.5 -19.5zM379 1151v-467h278q143 0 215 61.5t72 172.5q0 233 -293 233h-272 z" />
<glyph unicode="S" horiz-adv-x="1196" d="M594 -27q-221 0 -359.5 86t-138.5 179q0 31 22.5 60.5t46 42.5t28.5 9q61 -88 165.5 -145.5t233.5 -57.5q137 0 213 54.5t76 152.5q0 43 -19.5 77t-44 54.5t-78 40t-86 28.5t-104.5 26q-92 20 -154.5 43.5t-129 65.5t-100.5 111.5t-34 166.5q0 170 133 277.5t344 107.5 q205 0 330 -77t125 -159q0 -35 -23.5 -64.5t-48 -43t-26.5 -9.5q-55 78 -149.5 128.5t-205.5 50.5q-125 0 -199.5 -55.5t-74.5 -147.5q0 -49 18.5 -83t64.5 -57.5t85 -35t119 -29.5q18 -4 26 -6q96 -23 166 -49.5t137.5 -70.5t103.5 -113.5t36 -161.5q0 -182 -133.5 -289 t-364.5 -107z" />
<glyph unicode="T" horiz-adv-x="1275" d="M170 1137q-98 0 -98 90v10q0 88 98 88h938q96 0 96 -88v-10q0 -90 -96 -90h-363v-1137h-213v1137h-362z" />
<glyph unicode="U" horiz-adv-x="1392" d="M694 -25q-264 0 -401 143.5t-137 420.5v698q0 96 90 96h28q92 0 93 -96v-692q0 -383 329.5 -383t329.5 385v690q0 96 90 96h33q88 0 88 -96v-694q0 -276 -139.5 -422t-403.5 -146z" />
<glyph unicode="V" horiz-adv-x="1331" d="M186 1333q90 0 123 -96l361 -1010l360 1010q33 96 117 96q31 0 61.5 -13t48 -28.5t13.5 -25.5l-500 -1266h-207l-502 1266q-4 10 13.5 25.5t49 28.5t62.5 13z" />
<glyph unicode="W" horiz-adv-x="1955" d="M459 0l-330 1274q-2 6 12.5 19.5t45 26.5t67.5 13q94 0 123 -123l215 -974l252 833q25 96 139 96q109 0 139 -96l248 -829l219 972q27 121 117 121q35 0 64.5 -13t43 -26.5t11.5 -19.5l-326 -1274h-239l-277 928l-289 -928h-235z" />
<glyph unicode="X" horiz-adv-x="1302" d="M514 666l-461 659h242l360 -532l336 473q45 72 109 71q33 0 63.5 -19.5t45.5 -39.5q11 -15 11 -23q0 -3 -1 -6l-433 -585l433 -582q2 -2 1 -6q0 -8 -10 -23q-14 -20 -47 -39.5t-67 -19.5q-74 0 -117 69l-334 478l-340 -480q-45 -72 -108 -71q-33 0 -64 19.5t-46 40 t-9 28.5z" />
<glyph unicode="Y" horiz-adv-x="1234" d="M512 0v543l-463 782h236l333 -606l340 541q45 74 105 73q41 0 73.5 -19.5t45.5 -38.5q9 -15 9 -23q0 -3 -1 -5l-467 -704v-543h-211z" />
<glyph unicode="Z" horiz-adv-x="1308" d="M129 0v188l782 953h-682q-94 0 -94 86v12q0 86 94 86h936v-176l-786 -965h723q94 0 94 -86v-12q0 -86 -94 -86h-973z" />
<glyph unicode="[" horiz-adv-x="768" d="M174 -406v1737h428q96 0 96 -78v-14q0 -80 -96 -80h-237v-1392h237q98 0 98 -78v-13q0 -82 -98 -82h-428z" />
<glyph unicode="\" horiz-adv-x="755" d="M754 -414h-191l-487 1577l-56 176h191l489 -1577z" />
<glyph unicode="]" horiz-adv-x="768" d="M166 -406q-98 0 -98 82v13q0 78 98 78h237v1392h-235q-53 0 -75.5 18.5t-22.5 61.5v14q0 78 98 78h426v-1737h-428z" />
<glyph unicode="^" horiz-adv-x="1085" d="M322 909q-29 0 -47.5 18.5t-18.5 47.5q0 74 121 185.5t166 119.5q45 -8 164.5 -119.5t119.5 -185.5q0 -29 -17 -47.5t-46 -18.5q-78 0 -223 219q-82 -121 -130 -170t-89 -49z" />
<glyph unicode="_" horiz-adv-x="1042" d="M145 -168q-88 0 -88 78v10q0 80 88 80h752q88 0 88 -80v-10q0 -78 -88 -78h-752z" />
<glyph unicode="`" horiz-adv-x="1085" d="M344 1247q-88 53 -88 125q0 35 27.5 57.5t64.5 22.5q51 0 98 -35q61 -41 124 -106.5t96.5 -115.5t27.5 -58q-16 -6 -63 -1t-133 35.5t-154 75.5z" />
<glyph unicode="a" horiz-adv-x="1132" d="M434 -23q-156 0 -246 77t-90 204q0 168 162 248t500 86h26v20q0 113 -62 172.5t-181 59.5q-199 0 -283 -168q0 -4 -31.5 1t-62.5 29.5t-31 67.5q0 82 115 159t307 77q209 0 319.5 -102.5t110.5 -291.5v-616h-199q1 14 1.5 51t-1.5 96q-121 -170 -354 -170zM483 123 q133 0 218 74.5t85 191.5v76l-55 -2q-221 -8 -327.5 -53t-106.5 -144q0 -66 49 -104.5t137 -38.5z" />
<glyph unicode="b" horiz-adv-x="1259" d="M696 -27q-119 0 -208 49.5t-132 124.5v-147h-200v1384q0 4 9 9.5t27.5 9.5t36.5 4q129 0 129 -174v-402q125 178 344 179q201 0 331 -142.5t130 -374t-131 -376t-336 -144.5zM659 141q137 0 222.5 96.5t85.5 254.5q0 154 -85 252t-218 98q-223 0 -308 -205v-219 q4 -119 93 -198t210 -79z" />
<glyph unicode="c" horiz-adv-x="1118" d="M608 -27q-223 0 -367.5 146.5t-144.5 374.5q0 223 145.5 369.5t366.5 146.5q197 0 309.5 -92.5t112.5 -180.5q0 -37 -28.5 -61.5t-58.5 -29.5t-34 1q-80 193 -297 193q-139 0 -231 -98.5t-92 -247.5q0 -152 92 -251.5t231 -99.5q217 0 297 193q8 2 35 0t56.5 -27.5 t29.5 -64.5q0 -86 -113.5 -178.5t-308.5 -92.5z" />
<glyph unicode="d" horiz-adv-x="1259" d="M557 -27q-201 0 -331 143.5t-130 375t131 375t336 143.5q115 0 204 -46t134 -116v536q0 4 10.5 9.5t27.5 9.5t36 4q129 0 129 -174v-1233h-201v164q-125 -191 -346 -191zM596 141q125 0 216 83t91 206v209q-84 203 -303 203q-139 0 -223 -96.5t-84 -253.5 q0 -154 85 -252.5t218 -98.5z" />
<glyph unicode="e" horiz-adv-x="1167" d="M616 -27q-233 0 -376.5 141.5t-143.5 372.5q0 225 143.5 374t360.5 149q213 0 343 -137.5t130 -358.5v-16q0 -33 -13 -46.5t-48 -13.5h-727q10 -137 103 -221t233 -84q213 0 309 164q4 4 28.5 -3t51 -32.5t26.5 -64.5q0 -76 -118 -150t-302 -74zM598 856q-121 0 -207 -79 t-104 -202h590q-8 129 -82 205t-197 76z" />
<glyph unicode="f" horiz-adv-x="784" d="M47 819v166h205v74q0 362 313 362q109 0 165 -37.5t56 -95.5q0 -27 -11 -49t-23.5 -31.5t-14.5 -7.5q-57 57 -147 57q-74 0 -107.5 -48t-33.5 -152v-72h253v-166h-249v-819h-201v819h-205z" />
<glyph unicode="g" horiz-adv-x="1259" d="M604 -408q-199 0 -320.5 80t-121.5 166q0 37 22.5 64.5t45 37t26.5 3.5q106 -178 342 -179q303 0 303 304v129q-121 -178 -346 -179q-207 0 -333 134.5t-126 359.5q0 215 133 356.5t334 141.5q113 0 204 -44t138 -112v131h199v-913q0 -480 -500 -480zM596 180 q123 0 212 76t95 193v202q-86 193 -303 193q-137 0 -222 -93.5t-85 -238.5q0 -152 83 -242t220 -90z" />
<glyph unicode="h" horiz-adv-x="1210" d="M358 1233v-404q113 180 326 181q188 0 284.5 -117t96.5 -309v-584h-203v561q0 127 -60.5 198.5t-166.5 71.5q-127 0 -202 -77.5t-75 -210.5v-543h-202v1384q0 4 9 9.5t27.5 9.5t36.5 4q129 0 129 -174z" />
<glyph unicode="i" horiz-adv-x="532" d="M164 0v897q0 98 92 98h20q90 0 91 -98v-897h-203zM266 1196q-57 0 -89 29.5t-32 83.5q0 115 123 114q119 0 119 -114q0 -113 -121 -113z" />
<glyph unicode="j" horiz-adv-x="532" d="M72 -410q-96 0 -152.5 37t-56.5 94q0 25 11 49.5t22.5 36t13.5 9.5q57 -57 131 -58q66 0 94.5 37t28.5 121v1069h203v-1081q0 -152 -76 -233t-219 -81zM266 1196q-57 0 -89 29.5t-32 83.5q0 115 123 114q119 0 119 -114q0 -113 -121 -113z" />
<glyph unicode="k" horiz-adv-x="1032" d="M156 0v1384q0 4 9 9.5t27.5 9.5t36.5 4q129 0 129 -174v-690l342 383q55 70 121 69q33 0 59.5 -18.5t38 -36.5t7.5 -25l-359 -395l414 -448q1 -2 1 -4q0 -7 -9 -22q-12 -19 -41 -37.5t-62 -18.5q-66 0 -120 69l-392 422v-481h-202z" />
<glyph unicode="l" horiz-adv-x="532" d="M164 0v1384q0 4 10 9.5t27.5 9.5t36.5 4q129 0 129 -174v-1233h-203z" />
<glyph unicode="m" horiz-adv-x="1841" d="M229 995q117 0 127 -151q117 166 306 166q242 0 321 -207q123 207 342 207q184 0 277.5 -105.5t93.5 -300.5v-604h-203v580q0 252 -217 251q-78 0 -144.5 -44t-105.5 -119v-668h-203v571q0 260 -217 260q-76 0 -143.5 -45t-104.5 -118v-668h-202v973q0 4 9 9t27.5 9 t36.5 4z" />
<glyph unicode="n" horiz-adv-x="1210" d="M229 995q119 0 127 -159q117 174 328 174q188 0 284.5 -116t96.5 -306v-588h-203v563q0 125 -60.5 196.5t-166.5 71.5q-94 0 -166 -46t-111 -126v-659h-202v973q0 4 9 9t27.5 9t36.5 4z" />
<glyph unicode="o" horiz-adv-x="1224" d="M612 -27q-229 0 -372.5 145.5t-143.5 375.5q0 227 144.5 371.5t373.5 144.5q225 0 369.5 -146.5t144.5 -374.5q0 -225 -144.5 -370.5t-371.5 -145.5zM612.5 139q141.5 0 234.5 99.5t93 250.5q0 154 -92 254.5t-236 100.5q-141 0 -235 -99.5t-94 -251t94 -253 t235.5 -101.5z" />
<glyph unicode="p" horiz-adv-x="1259" d="M156 -389v1362q0 4 9 9t27.5 9t36.5 4q125 0 127 -172q121 186 346 187q201 0 331 -142.5t130 -374t-131 -376t-336 -144.5q-117 0 -205 52.5t-133 132.5v-547h-202zM659 141q137 0 222.5 96.5t85.5 254.5q0 154 -85 252t-218 98q-223 0 -308 -205v-207q0 -123 89 -206 t214 -83z" />
<glyph unicode="q" horiz-adv-x="1259" d="M901 -391v551q-125 -186 -344 -187q-201 0 -331 143.5t-130 375t131 375t336 143.5q115 0 205 -47.5t135 -118.5q8 152 127 151q18 0 36.5 -4t28 -9t9.5 -9v-1364h-203zM596 141q125 0 216 84t91 207v205q-86 205 -303 205q-139 0 -223 -96.5t-84 -253.5 q0 -154 85 -252.5t218 -98.5z" />
<glyph unicode="r" horiz-adv-x="823" d="M229 995q125 0 127 -172q66 186 250 187q76 0 119 -35t43 -96q0 -35 -14.5 -61.5t-29.5 -36t-17 -7.5q-53 43 -125 43q-223 0 -224 -383v-434h-202v973q0 4 9 9t27.5 9t36.5 4z" />
<glyph unicode="s" horiz-adv-x="1011" d="M500 -25q-193 0 -304.5 65.5t-111.5 143.5q0 29 19.5 52.5t38 33t22.5 6.5q115 -147 332 -147q102 0 159.5 36t57.5 97q0 37 -14.5 60.5t-55.5 41t-73.5 26.5t-110.5 26q-59 12 -94 21t-89.5 32t-85 50.5t-54 74.5t-23.5 106q0 139 107.5 224.5t285.5 85.5 q176 0 277.5 -61.5t101.5 -137.5q0 -29 -19.5 -53.5t-40 -34.5t-22.5 -6q-104 139 -289 139q-102 0 -157.5 -36t-55.5 -99q0 -61 53.5 -88t192.5 -58l98 -22q35 -8 93.5 -31.5t89 -51.5t56 -76t25.5 -109q0 -141 -109.5 -225.5t-299.5 -84.5z" />
<glyph unicode="t" horiz-adv-x="821" d="M70 819v166h159v152q0 96 90 96h21q88 0 88 -96v-152h309v-166h-311v-497q0 -94 29.5 -138.5t101.5 -44.5q86 0 139 70q4 4 17.5 -4t27 -30.5t13.5 -51.5q0 -59 -62.5 -104.5t-167.5 -45.5q-295 0 -295 326v520h-159z" />
<glyph unicode="u" horiz-adv-x="1210" d="M983 -8q-125 0 -129 155q-119 -172 -328 -172q-188 0 -283.5 115t-95.5 307v588h201v-563q0 -127 61.5 -198.5t174.5 -71.5q184 0 270 174v659h201v-971q0 -4 -9.5 -9t-27 -9t-35.5 -4z" />
<glyph unicode="v" horiz-adv-x="1083" d="M541 180l256 694q43 121 125 121q29 0 55.5 -13t38.5 -26.5t10 -19.5l-379 -936h-207l-383 936q-2 6 10.5 20.5t39 26.5t57.5 12q45 0 74.5 -25.5t54.5 -95.5z" />
<glyph unicode="w" horiz-adv-x="1515" d="M338 0l-266 936q-2 6 15 20.5t48 26.5t58 12q86 0 106 -108l154 -690l188 596q20 72 125 71q102 0 123 -71l182 -592l152 686q18 109 104 108q27 0 56.5 -13t46 -26.5t14.5 -19.5l-264 -936h-207l-211 655l-217 -655h-207z" />
<glyph unicode="x" horiz-adv-x="1062" d="M662 492l319 -426q4 -6 -8 -23.5t-40 -35t-63 -17.5q-74 0 -125 84l-219 311l-213 -309q-53 -86 -127 -86q-33 0 -61.5 17.5t-40.5 35.5q-9 14 -9 20q0 2 1 3l325 426l-321 430q-4 6 8 23.5t40 33.5t60 16q74 0 127 -84l220 -313l215 313q53 84 124 84q33 0 62 -17 t42 -34.5t9 -21.5z" />
<glyph unicode="y" horiz-adv-x="1081" d="M438 -399q-27 0 -53.5 12t-40.5 24.5t-12 18.5l164 399q-66 6 -86 58l-373 872h209l313 -784l279 784h206l-481 -1272q-41 -112 -125 -112z" />
<glyph unicode="z" horiz-adv-x="1048" d="M102 0v135l574 688h-481q-88 0 -89 74v14q0 74 89 74h741v-129l-582 -692h510q88 0 88 -76v-12q0 -76 -88 -76h-762z" />
<glyph unicode="{" horiz-adv-x="948" d="M786 -408q-78 0 -154.5 39t-146 115t-116.5 204t-58 290l-112 61q-74 39 -96.5 67.5t-22.5 96t23.5 97.5t95.5 67l112 61q20 313 163.5 480t313.5 167q43 0 69 -23.5t26 -64.5q0 -23 -12.5 -45t-18.5 -24q-184 -35 -262 -174.5t-86 -409.5l-244 -131l242 -131 q10 -270 87 -409.5t261 -174.5q8 -2 20.5 -24.5t12.5 -44.5q0 -41 -27 -65t-70 -24z" />
<glyph unicode="|" horiz-adv-x="585" d="M283 -406q-92 0 -93 99v1548q0 96 93 96h20q90 0 90 -96v-1548q0 -98 -90 -99h-20z" />
<glyph unicode="}" horiz-adv-x="948" d="M160 -408q-43 0 -68.5 24t-25.5 65q0 23 12 45t18 24q184 35 262 174t86 410l242 131l-242 131q-10 270 -86.5 409.5t-261.5 174.5q-8 2 -20.5 24.5t-12.5 44.5q0 41 26 64.5t69 23.5q78 0 155.5 -38.5t147 -114.5t117 -204t57.5 -290l115 -61q72 -39 95 -68t23 -96.5 t-22.5 -96t-95.5 -67.5l-113 -61q-10 -162 -57.5 -290t-117 -204t-147 -115t-155.5 -39z" />
<glyph unicode="~" horiz-adv-x="1083" d="M299 338q-33 0 -52.5 19.5t-19.5 52.5q0 80 46 138t114 58q125 0 295 -153q45 141 104 141q72 0 72 -74q0 -78 -47 -136t-113 -58q-131 0 -295 153q-49 -141 -104 -141z" />
<glyph unicode="&#xa1;" horiz-adv-x="593" d="M309 940q37 0 49 -70l70 -870h-264l72 870q4 37 15 53.5t36 16.5h22zM311 1339q111 0 111 -110v-25q0 -113 -111 -112h-26q-113 0 -113 112v25q0 111 113 110h26z" />
<glyph unicode="&#xa2;" horiz-adv-x="1157" d="M623 -203q-82 0 -82 97v165q-203 29 -317.5 165t-114.5 354q0 205 118.5 345t311.5 173v157q0 98 84 99h10q82 0 82 -99v-151q160 -16 253 -89t93 -147q0 -37 -25.5 -63.5t-52.5 -35.5t-31 -3q-84 152 -245 170v-713q180 20 258 189q4 6 30.5 -1.5t54 -33t27.5 -62.5 q0 -82 -98 -162.5t-262 -97.5v-159q0 -96 -84 -97h-10zM305 578q0 -135 65.5 -225.5t178.5 -121.5v697q-115 -27 -179.5 -118t-64.5 -232z" />
<glyph unicode="&#xa3;" horiz-adv-x="1247" d="M180 526q-82 0 -82 72v18q0 74 82 74h156l51 273q72 389 416 389q168 0 263 -83t95 -186q0 -51 -32.5 -78.5t-60.5 -26.5t-34 1q-43 201 -225 201q-104 0 -157.5 -56.5t-76.5 -181.5l-47 -252h310q82 0 82 -74v-18q0 -72 -82 -72h-338l-64 -350h611q94 0 94 -82v-12 q0 -82 -94 -82h-889q-94 0 -95 82v14q0 80 95 80h86l63 350h-127z" />
<glyph unicode="&#xa4;" horiz-adv-x="1347" d="M174 750q-82 0 -82 65v16q0 63 82 64h119q43 211 183 333t345 122q186 0 305 -83t119 -175q0 -37 -25.5 -65t-52 -37t-30.5 -3q-55 94 -131 141.5t-189 47.5q-119 0 -203 -75t-118 -206h391q80 0 80 -64v-16q0 -66 -80 -65h-412v-166h412q80 0 80 -66v-16q0 -66 -80 -66 h-391q35 -133 122 -209.5t209 -76.5q209 0 314 204q4 6 30.5 -3t53 -37.5t26.5 -65.5q0 -92 -117.5 -183.5t-304.5 -91.5q-215 0 -356 122t-182 341h-117q-82 0 -82 66v16q0 66 82 66h102v166h-102z" />
<glyph unicode="&#xa5;" horiz-adv-x="1267" d="M227 522q-84 0 -84 68v16q0 68 84 68h250l-360 571q-4 8 8 29.5t45 41t76 19.5q66 0 102 -73l285 -523l295 521q43 76 104 75q37 0 67.5 -20.5t42 -41t7.5 -28.5l-358 -571h247q84 0 84 -68v-16q0 -68 -84 -68h-309v-139h309q84 0 84 -68v-16q0 -68 -84 -68h-309v-145 q0 -96 -86 -96h-22q-82 0 -82 96v145h-312q-84 0 -84 68v16q0 68 84 68h312v139h-312z" />
<glyph unicode="&#xa7;" horiz-adv-x="1171" d="M565 -348q-225 0 -347 81t-122 171q0 29 20.5 55.5t42 38.5t23.5 8q121 -190 383 -190q127 0 198 41t71 114q0 55 -42 90t-87.5 49.5t-161.5 41.5q-10 2 -17 4q-76 18 -121 30.5t-110.5 39t-101 58t-63.5 84t-28 117.5q0 96 57.5 164t159.5 103q-174 80 -174 258 q0 152 127 246t322 94q207 0 315.5 -76t108.5 -154q0 -31 -20.5 -58.5t-42 -38.5t-25.5 -7q-125 172 -330 172q-109 0 -180.5 -42t-71.5 -116t74 -113.5t235 -76.5q78 -18 120 -30.5t106.5 -40.5t99.5 -58.5t61.5 -81.5t26.5 -115q0 -193 -215 -266q178 -78 178 -260 q0 -152 -128 -244t-341 -92zM551 686q-20 2 -47 10q-96 -14 -157.5 -67.5t-61.5 -114.5q0 -33 10 -58.5t38.5 -45t51.5 -32.5t74 -26.5t76.5 -19.5l91.5 -21l51 -12q90 14 149.5 68.5t59.5 117.5q0 37 -19.5 67t-44 48t-77 35.5t-88 27t-107.5 23.5z" />
<glyph unicode="&#xa8;" horiz-adv-x="1085" d="M733 1118q-59 0 -92 32t-33 89t33 90t88 33t89 -33t34 -90q0 -55 -33 -88t-86 -33zM356.5 1118q-55.5 0 -89.5 33t-34 88q0 57 33 90t86 33q59 0 92 -33t33 -90t-32.5 -89t-88 -32z" />
<glyph unicode="&#xa9;" horiz-adv-x="1601" d="M801 -27q-297 0 -487.5 193.5t-190.5 492.5t193.5 496t486.5 197q297 0 486.5 -192.5t189.5 -493.5q0 -299 -192.5 -496t-485.5 -197zM803 84q248 0 401.5 161t153.5 417q0 250 -159 414.5t-400 164.5q-248 0 -401.5 -160.5t-153.5 -416.5q0 -250 158.5 -415t400.5 -165z M819 291q-162 0 -265 103.5t-103 264.5q0 158 105.5 263.5t260.5 105.5q152 0 236 -84q39 -39 39 -82q0 -25 -19.5 -45t-40 -28.5t-22.5 -4.5q-61 102 -191 103q-88 0 -149.5 -64.5t-61.5 -160.5q0 -98 62.5 -163t154.5 -65q133 0 191 111q2 4 22.5 -3t41 -28.5t20.5 -48.5 q0 -39 -47 -90q-80 -84 -234 -84z" />
<glyph unicode="&#xaa;" horiz-adv-x="952" d="M383 522q-135 0 -212 59.5t-77 161.5q0 84 44 138.5t166 90.5t335 46q0 190 -193 190q-139 0 -215 -131q-2 -4 -27.5 0t-52 23.5t-26.5 54.5q0 70 88 133.5t246 63.5q354 0 354 -334v-467q0 -18 -63 -19q-96 0 -105 119q-90 -129 -262 -129zM449 -14q-100 0 -101 100v20 q0 100 101 101h22q102 0 102 -101v-20q0 -100 -102 -100h-22zM428 649q88 0 150.5 52.5t62.5 121.5v92q-221 -14 -299 -52t-78 -107q0 -49 44 -78t120 -29z" />
<glyph unicode="&#xab;" horiz-adv-x="1124" d="M926 147q-59 0 -156.5 82t-166 167t-68.5 103.5t68.5 103.5t165.5 167t157 82h4q33 0 53.5 -20.5t20.5 -51.5v-6q0 -74 -302 -276q301 -197 302 -273v-8q0 -29 -20.5 -49.5t-53.5 -20.5h-4zM469 182q-53 0 -142 74t-151.5 150.5t-62.5 93t62.5 93.5t151.5 150.5t142 73.5 h4q29 0 47.5 -19.5t18.5 -45.5v-4q0 -70 -269 -250q268 -176 269 -248v-2q0 -29 -18.5 -47.5t-47.5 -18.5h-4z" />
<glyph unicode="&#xad;" horiz-adv-x="866" d="M115 406v186h637v-186h-637z" />
<glyph unicode="&#xae;" horiz-adv-x="1601" d="M801 -27q-297 0 -487.5 193.5t-190.5 492.5t193.5 496t486.5 197q297 0 486.5 -192.5t189.5 -493.5q0 -299 -192.5 -496t-485.5 -197zM803 84q248 0 401.5 161t153.5 417q0 250 -159 414.5t-400 164.5q-248 0 -401.5 -160.5t-153.5 -416.5q0 -250 158.5 -415t400.5 -165z M1018 303q-59 0 -98 57l-156 205h-82v-188q0 -72 -66 -72h-22q-66 0 -66 86v545q0 86 82 86h217q285 0 285 -225q0 -86 -50 -142.5t-140 -70.5l182 -222q4 -6 -7.5 -19t-33.5 -26.5t-45 -13.5zM680 897v-213h145q63 0 98 28.5t35 78.5q0 106 -139 106h-139z" />
<glyph unicode="&#xaf;" horiz-adv-x="1085" d="M324 1151q-102 0 -103 80v12q0 76 103 76h438q102 0 102 -76v-12q0 -80 -102 -80h-438z" />
<glyph unicode="&#xb0;" horiz-adv-x="878" d="M436 702q-139 0 -228 89.5t-89 226.5v18q0 137 92 227.5t231.5 90.5t228.5 -89t89 -227v-18q0 -137 -92.5 -227.5t-231.5 -90.5zM442 831q74 0 124 52.5t50 132.5v22q0 80 -52 133.5t-126 53.5q-76 0 -126 -52.5t-50 -132.5v-22q0 -80 52 -133.5t128 -53.5z" />
<glyph unicode="&#xb1;" horiz-adv-x="1290" d="M293 809q-88 0 -88 76v12q0 76 88 76h266v262q0 88 78 88h14q78 0 78 -88v-262h266q88 0 88 -76v-12q0 -76 -88 -76h-266v-268q0 -88 -78 -88h-14q-78 0 -78 88v268h-266zM272 195q-88 0 -88 75v17q0 76 88 75h744q88 0 88 -75v-17q0 -76 -88 -75h-744z" />
<glyph unicode="&#xb2;" horiz-adv-x="749" d="M444 879q-8 -4 -32.5 -14.5t-33.5 -13.5t-29.5 -13.5l-30 -15.5t-24.5 -15t-23 -19l-16 -19q-9 -11 -13 -23.5t-6 -26.5h350q78 0 78 -64v-6q0 -66 -78 -65h-385q-57 0 -79 18.5t-22 65.5v34q0 102 56.5 156.5t171.5 108.5q10 4 33.5 15t32.5 16l28 16l26.5 15t19.5 15.5 t16 19.5t9.5 20.5t4.5 23.5q0 47 -34 74.5t-93 27.5q-125 0 -158 -133q-4 0 -28.5 -2t-53.5 18.5t-29 57.5q0 72 77 131t204 59q129 0 200.5 -60t71.5 -169q0 -49 -16 -87t-50 -65.5t-64 -42.5t-81 -38z" />
<glyph unicode="&#xb3;" horiz-adv-x="749" d="M657 795q0 -106 -78.5 -166t-224.5 -60q-127 0 -204.5 52.5t-77.5 115.5q0 37 24.5 59.5t46 21.5t27.5 -3q35 -119 182 -119q70 0 113 30t43 79q0 104 -141 104h-41q-76 0 -76 56v10q0 55 74 55h57q51 0 83 24.5t32 63.5q0 43 -41 69.5t-105 26.5q-123 0 -164 -108h-25 q-22 0 -46.5 21.5t-24.5 56.5q0 61 74 109t190 48q141 0 214 -53t73 -151q0 -119 -127 -156q143 -47 143 -186z" />
<glyph unicode="&#xb4;" horiz-adv-x="1085" d="M391 1137q-6 8 28 58t96.5 115.5t121.5 106.5q53 35 98 35q39 0 65.5 -22.5t26.5 -57.5q0 -74 -86 -125q-68 -45 -153.5 -75.5t-133 -35.5t-63.5 1z" />
<glyph unicode="&#xb6;" horiz-adv-x="1331" d="M1067 -10q-68 0 -68 73v1199q0 74 68 73h23q72 0 71 -73v-1199q0 -74 -71 -73h-23zM793 -10q-70 0 -70 73v521h-154q-236 0 -358.5 93t-122.5 275q0 184 120 281.5t353 97.5h232q39 0 64.5 -24.5t25.5 -65.5v-1178q0 -74 -68 -73h-22z" />
<glyph unicode="&#xb7;" horiz-adv-x="536" d="M252 377q-111 0 -111 108v25q0 113 111 113h29q113 0 112 -113v-25q0 -109 -112 -108h-29z" />
<glyph unicode="&#xb8;" horiz-adv-x="1085" d="M446 -459q-25 -23 -70.5 -9.5t-31.5 48.5l109 242q14 31 23 45t29.5 24.5t55.5 10.5h19q41 0 67.5 -19.5t26.5 -52.5v-10q0 -29 -66 -94z" />
<glyph unicode="&#xb9;" horiz-adv-x="749" d="M195 584q-76 0 -76 65v2q0 70 76 70h129v407q-41 -35 -97 -34q-47 0 -81.5 27.5t-34.5 70.5q0 25 11 45t22.5 29.5t15.5 7.5q33 -33 78 -33q41 0 72.5 25.5t37.5 66.5h55q74 0 74 -78v-534h103q78 0 77 -70v-2q0 -66 -77 -65h-385z" />
<glyph unicode="&#xba;" horiz-adv-x="1040" d="M520 520q-178 0 -294.5 118t-116.5 296q0 174 119.5 296t293.5 122q178 0 294 -119t116 -297q0 -176 -119 -296t-293 -120zM506 -14q-100 0 -100 100v20q0 100 100 101h22q102 0 103 -101v-20q0 -100 -103 -100h-22zM522.5 668q106.5 0 176 76.5t69.5 191.5t-70.5 191.5 t-175.5 76.5q-106 0 -178 -76.5t-72 -191.5q0 -113 72 -190.5t178.5 -77.5z" />
<glyph unicode="&#xbb;" horiz-adv-x="1124" d="M651 182q-29 0 -47 19.5t-18 46.5v4q0 68 266 250q-266 178 -266 248v2q0 29 17.5 47t47.5 18h2q55 0 143.5 -73.5t152 -150.5t63.5 -93.5t-63.5 -93t-151.5 -150.5t-144 -74h-2zM195 147q-35 0 -54.5 20.5t-19.5 51.5v6q0 74 301 277q-301 197 -301 272v8 q0 31 19.5 50.5t54.5 19.5h2q59 0 156.5 -82t166 -167t68.5 -103.5t-68.5 -103.5t-166 -167t-156.5 -82h-2z" />
<glyph unicode="&#xbc;" horiz-adv-x="1683" d="M195 584q-76 0 -76 65v2q0 70 76 70h129v407q-41 -35 -97 -34q-47 0 -81.5 27.5t-34.5 70.5q0 25 11 45t22.5 29.5t15.5 7.5q33 -33 78 -33q41 0 72.5 25.5t37.5 66.5h55q74 0 74 -78v-534h103q78 0 77 -70v-2q0 -66 -77 -65h-385zM328 0q0 45 47 106l424 512l540 680h21 q16 0 34.5 -15t18.5 -42q0 -45 -51 -106q-12 -16 -82 -101l-170 -206l-170 -210l-539 -677q-6 -2 -23.5 -1t-33.5 17t-16 43zM1427 -8q-68 0 -67 78v114h-275q-45 0 -70.5 19.5t-25.5 50.5v29q2 29 37 88l225 315q23 39 49.5 51.5t90 12.5t89 -24t25.5 -83v-334h60 q72 0 71 -59v-6q0 -59 -71 -60h-60v-114q0 -78 -69 -78h-9zM1364 635l-234 -328h236z" />
<glyph unicode="&#xbd;" horiz-adv-x="1683" d="M1378 295q-8 -4 -32.5 -14.5t-33.5 -13.5t-29.5 -13t-30 -15.5t-25 -15.5t-22.5 -18l-16 -20q-9 -11 -13.5 -23t-6.5 -27h351q78 0 77 -63v-6q0 -66 -77 -66h-385q-57 0 -79 18.5t-22 65.5v35q0 102 56.5 156.5t171.5 107.5q10 4 33.5 15.5t32.5 16.5l28 15 q18 10 26.5 15.5t19.5 15.5t16 19t9.5 20.5t4.5 23.5q0 47 -34 75t-93 28q-125 0 -158 -133q-4 0 -28.5 -2.5t-53.5 18t-29 57.5q0 72 77 131.5t204 59.5q129 0 200.5 -60.5t71.5 -169.5q0 -49 -16.5 -87t-50 -65.5t-63.5 -42.5t-81 -38zM195 584q-76 0 -76 65v2q0 70 76 70 h129v407q-41 -35 -97 -34q-47 0 -81.5 27.5t-34.5 70.5q0 25 11 45t22.5 29.5t15.5 7.5q33 -33 78 -33q41 0 72.5 25.5t37.5 66.5h55q74 0 74 -78v-534h103q78 0 77 -70v-2q0 -66 -77 -65h-385zM270 0q0 45 47 106l424 512l541 680h21q16 0 34.5 -15t18.5 -42 q0 -45 -51 -106q-12 -16 -82 -101l-170 -206l-170 -210l-539 -677q-6 -2 -23.5 -1t-34 17t-16.5 43z" />
<glyph unicode="&#xbe;" horiz-adv-x="1683" d="M1427 -8q-68 0 -67 78v114h-275q-45 0 -70.5 19.5t-25.5 50.5v29q2 29 37 88l225 315q23 39 49.5 51.5t90 12.5t89 -24t25.5 -83v-334h60q72 0 71 -59v-6q0 -59 -71 -60h-60v-114q0 -78 -69 -78h-9zM657 795q0 -106 -78.5 -166t-224.5 -60q-127 0 -204.5 52.5 t-77.5 115.5q0 37 24.5 59.5t46 21.5t27.5 -3q35 -119 182 -119q70 0 113 30t43 79q0 104 -141 104h-41q-76 0 -76 56v10q0 55 74 55h57q51 0 83 24.5t32 63.5q0 43 -41 69.5t-105 26.5q-123 0 -164 -108h-25q-22 0 -46.5 21.5t-24.5 56.5q0 61 74 109t190 48q141 0 214 -53 t73 -151q0 -119 -127 -156q143 -47 143 -186zM324 0q0 45 47 106l424 512l540 680h21q16 0 34.5 -15t18.5 -42q0 -45 -51 -106q-12 -16 -82 -101l-170 -206l-170 -210l-539 -677q-6 -2 -23.5 -1t-33.5 17t-16 43zM1364 635l-234 -328h236z" />
<glyph unicode="&#xbf;" horiz-adv-x="1042" d="M657 922q2 0 0 -25q-8 -104 -50 -181t-95 -119t-104.5 -77t-87 -79t-35.5 -101q0 -88 61.5 -140.5t169.5 -52.5q135 0 205 75t86 186q2 6 37 0.5t70.5 -33t35.5 -76.5q0 -111 -115.5 -217.5t-322.5 -106.5q-197 0 -312.5 97.5t-115.5 251.5q0 92 42 161.5t101 112.5 l118 84q58 41 100 101.5t42 138.5h170zM582 1339q111 0 110 -110v-25q0 -113 -110 -112h-29q-113 0 -113 112v25q0 111 113 110h29z" />
<glyph unicode="&#xc0;" horiz-adv-x="1351" d="M1087 0l-151 389h-530l-150 -389h-215l487 1270q27 68 146 67q70 0 101.5 -16t43.5 -51l496 -1270h-228zM670 1120l-213 -561h426zM426 1587q-88 53 -88 125q0 35 27.5 57.5t64.5 22.5q51 0 98 -35q61 -41 124 -106.5t96.5 -115.5t27.5 -58q-16 -6 -63 -1t-133 35.5 t-154 75.5z" />
<glyph unicode="&#xc1;" horiz-adv-x="1351" d="M1087 0l-151 389h-530l-150 -389h-215l487 1270q27 68 146 67q70 0 101.5 -16t43.5 -51l496 -1270h-228zM670 1120l-213 -561h426zM555 1477q-6 8 27.5 58t96 115.5t122.5 106.5q53 35 98 35q39 0 65.5 -22.5t26.5 -57.5q0 -74 -86 -125q-68 -45 -153.5 -75.5t-133 -35.5 t-63.5 1z" />
<glyph unicode="&#xc2;" horiz-adv-x="1351" d="M1087 0l-151 389h-530l-150 -389h-215l487 1270q27 68 146 67q70 0 101.5 -16t43.5 -51l496 -1270h-228zM670 1120l-213 -561h426zM453 1460q-29 0 -47.5 18.5t-18.5 47.5q0 74 121 185.5t166 119.5q45 -8 164.5 -120t119.5 -185q0 -29 -17 -47.5t-46 -18.5 q-78 0 -223 219q-82 -121 -130 -170t-89 -49z" />
<glyph unicode="&#xc3;" horiz-adv-x="1351" d="M1087 0l-151 389h-530l-150 -389h-215l487 1270q27 68 146 67q70 0 101.5 -16t43.5 -51l496 -1270h-228zM670 1120l-213 -561h426zM440 1470q-33 0 -52 19.5t-19 52.5q0 80 46 138.5t113 58.5q125 0 295 -154q45 141 105 141q72 0 71 -73q0 -78 -47 -136.5t-112 -58.5 q-131 0 -295 154q-50 -142 -105 -142z" />
<glyph unicode="&#xc4;" horiz-adv-x="1351" d="M1087 0l-151 389h-530l-150 -389h-215l487 1270q27 68 146 67q70 0 101.5 -16t43.5 -51l496 -1270h-228zM670 1120l-213 -561h426zM864 1458q-59 0 -92 32t-33 89t33 90t88 33t89 -33t34 -90q0 -55 -33 -88t-86 -33zM487.5 1458q-55.5 0 -89 33t-33.5 88q0 57 32.5 90 t85.5 33q59 0 92 -33t33 -90t-32.5 -89t-88 -32z" />
<glyph unicode="&#xc5;" horiz-adv-x="1351" d="M922 1475q0 -133 -109 -201l4 -4l477 -1217q4 -8 -12 -23.5t-46 -27.5t-58 -12q-88 0 -125 98l-117 301h-530l-117 -303q-35 -96 -117 -96q-29 0 -57.5 12t-45 26.5t-12.5 24.5l471 1217q0 2 4 6q-104 61 -104 199q0 104 70.5 174.5t177 70.5t176.5 -69.5t70 -175.5z M670 1124l-213 -565h428zM674 1341q53 0 89 38t36 95.5t-36 97.5t-89 40t-90 -40t-37 -97q0 -55 37 -94.5t90 -39.5z" />
<glyph unicode="&#xc6;" horiz-adv-x="1818" d="M1042 106l-106 283h-530l-117 -303q-37 -96 -117 -96q-29 0 -57.5 12t-45 26.5t-12.5 24.5l463 1192q29 80 135 80h953q98 0 98 -88v-12q0 -88 -98 -88h-746l144 -369h450q98 0 98 -84v-10q0 -86 -98 -86h-377l156 -402h385q96 0 96 -84v-10q0 -92 -96 -92h-418 q-68 0 -102.5 22.5t-57.5 83.5zM670 1120l-213 -561h428z" />
<glyph unicode="&#xc7;" horiz-adv-x="1406" d="M788 -27q-295 0 -481 191.5t-186 494.5q0 305 188.5 499t485.5 194q223 0 361 -97.5t138 -183.5q0 -45 -29.5 -73.5t-60 -38t-33.5 -3.5q-55 98 -157.5 151.5t-216.5 53.5q-201 0 -329 -138t-128 -359q0 -219 130 -359.5t331 -140.5q135 0 238.5 62.5t144.5 168.5 q2 6 34.5 -2t64.5 -36.5t32 -73.5q0 -94 -144.5 -202t-382.5 -108zM659 -459q-25 -23 -70.5 -9.5t-31.5 48.5l109 242q14 31 23 45t29.5 24.5t55.5 10.5h19q41 0 67.5 -19.5t26.5 -52.5v-10q0 -29 -66 -94z" />
<glyph unicode="&#xc8;" horiz-adv-x="1263" d="M172 0v1206q0 53 30.5 86t82.5 33h866v-188h-768v-371h616v-178h-616v-402h778v-186h-989zM473 1587q-88 53 -88 125q0 35 27.5 57.5t64.5 22.5q51 0 98 -35q61 -41 124 -106.5t96.5 -115.5t27.5 -58q-16 -6 -63 -1t-133 35.5t-154 75.5z" />
<glyph unicode="&#xc9;" horiz-adv-x="1263" d="M492 1477q-6 8 27.5 58t96 115.5t121.5 106.5q53 35 99 35q39 0 65.5 -22.5t26.5 -57.5q0 -74 -86 -125q-68 -45 -154 -75.5t-133 -35.5t-63 1zM172 0v1206q0 53 30.5 86t82.5 33h866v-188h-768v-371h616v-178h-616v-402h778v-186h-989z" />
<glyph unicode="&#xca;" horiz-adv-x="1263" d="M442 1460q-29 0 -47 18.5t-18 47.5q0 74 120.5 185.5t166.5 119.5q45 -8 164.5 -120t119.5 -185q0 -29 -17.5 -47.5t-45.5 -18.5q-78 0 -223 219q-82 -121 -130.5 -170t-89.5 -49zM172 0v1206q0 53 30.5 86t82.5 33h866v-188h-768v-371h616v-178h-616v-402h778v-186h-989 z" />
<glyph unicode="&#xcb;" horiz-adv-x="1263" d="M854 1458q-59 0 -92 32t-33 89t33 90t88 33t89 -33t34 -90q0 -55 -33 -88t-86 -33zM477 1458q-55 0 -89 33t-34 88q0 57 33 90t86 33q59 0 92 -33t33 -90t-33 -89t-88 -32zM172 0v1206q0 53 30.5 86t82.5 33h866v-188h-768v-371h616v-178h-616v-402h778v-186h-989z" />
<glyph unicode="&#xcc;" horiz-adv-x="591" d="M190 0v1325h211v-1325h-211zM72 1587q-88 53 -88 125q0 35 27.5 57.5t64.5 22.5q51 0 98 -35q61 -41 123.5 -106.5t96.5 -115.5t28 -58q-16 -6 -63.5 -1t-133 35.5t-153.5 75.5z" />
<glyph unicode="&#xcd;" horiz-adv-x="591" d="M190 0v1325h211v-1325h-211zM168 1477q-6 8 27.5 58t96 115.5t122.5 106.5q53 35 98 35q39 0 65.5 -22.5t26.5 -57.5q0 -74 -86 -125q-68 -45 -153.5 -75.5t-133 -35.5t-63.5 1z" />
<glyph unicode="&#xce;" horiz-adv-x="591" d="M190 0v1325h211v-1325h-211zM74 1460q-29 0 -47.5 18.5t-18.5 47.5q0 74 121 185.5t166 119.5q45 -8 165 -120t120 -185q0 -29 -17.5 -47.5t-46.5 -18.5q-78 0 -223 219q-82 -121 -130 -170t-89 -49z" />
<glyph unicode="&#xcf;" horiz-adv-x="591" d="M190 0v1325h211v-1325h-211zM485 1458q-59 0 -92 32t-33 89t33 90t88.5 33t89 -33t33.5 -90q0 -55 -33 -88t-86 -33zM108.5 1458q-55.5 0 -89 33t-33.5 88q0 57 32.5 90t85.5 33q59 0 92 -33t33 -90t-32.5 -89t-88 -32z" />
<glyph unicode="&#xd0;" horiz-adv-x="1538" d="M137 582q-80 0 -80 73v19q0 72 80 71h109v461q0 53 31.5 86t80.5 33h332q338 0 532.5 -176t194.5 -483.5t-198.5 -486.5t-538.5 -179h-318q-49 0 -82.5 35t-33.5 82v465h-109zM455 186h237q246 0 380 125t134 353q0 225 -135 350t-377 125h-239v-394h358q82 0 82 -71v-19 q0 -74 -82 -73h-358v-396z" />
<glyph unicode="&#xd1;" horiz-adv-x="1458" d="M172 0v1214q0 55 25.5 87t74.5 32h35q45 0 69.5 -17.5t57.5 -62.5l656 -929v1001h198v-1214q0 -55 -26.5 -87t-71.5 -32h-16q-45 0 -66 13t-47 50l-690 977v-1032h-199zM485 1470q-33 0 -52 19.5t-19 52.5q0 80 46 138.5t113 58.5q125 0 295 -154q45 141 105 141 q72 0 71 -73q0 -78 -47 -136.5t-112 -58.5q-131 0 -295 154q-50 -142 -105 -142z" />
<glyph unicode="&#xd2;" d="M788 -27q-297 0 -483 191.5t-186 495t189.5 498t482.5 194.5q297 0 483 -191.5t186 -496.5q0 -303 -188.5 -497t-483.5 -194zM790.5 160q200.5 0 328.5 139t128 360.5t-129 363.5t-329.5 142t-328.5 -139t-128 -362q0 -221 129 -362.5t329.5 -141.5zM557 1587 q-88 53 -88 125q0 35 27.5 57.5t64.5 22.5q51 0 98 -35q61 -41 124 -106.5t96.5 -115.5t27.5 -58q-16 -6 -63 -1t-133 35.5t-154 75.5z" />
<glyph unicode="&#xd3;" d="M662 1477q-6 8 27.5 58t96 115.5t121.5 106.5q53 35 99 35q39 0 65.5 -22.5t26.5 -57.5q0 -74 -86 -125q-68 -45 -154 -75.5t-133 -35.5t-63 1zM788 -27q-297 0 -483 191.5t-186 495t189.5 498t482.5 194.5q297 0 483 -191.5t186 -496.5q0 -303 -188.5 -497t-483.5 -194z M790.5 160q200.5 0 328.5 139t128 360.5t-129 363.5t-329.5 142t-328.5 -139t-128 -362q0 -221 129 -362.5t329.5 -141.5z" />
<glyph unicode="&#xd4;" d="M567 1460q-29 0 -47 18.5t-18 47.5q0 74 120.5 185.5t165.5 119.5q45 -8 165 -120t120 -185q0 -29 -17.5 -47.5t-45.5 -18.5q-78 0 -224 219q-82 -121 -130 -170t-89 -49zM788 -27q-297 0 -483 191.5t-186 495t189.5 498t482.5 194.5q297 0 483 -191.5t186 -496.5 q0 -303 -188.5 -497t-483.5 -194zM790.5 160q200.5 0 328.5 139t128 360.5t-129 363.5t-329.5 142t-328.5 -139t-128 -362q0 -221 129 -362.5t329.5 -141.5z" />
<glyph unicode="&#xd5;" d="M788 -27q-297 0 -483 191.5t-186 495t189.5 498t482.5 194.5q297 0 483 -191.5t186 -496.5q0 -303 -188.5 -497t-483.5 -194zM790.5 160q200.5 0 328.5 139t128 360.5t-129 363.5t-329.5 142t-328.5 -139t-128 -362q0 -221 129 -362.5t329.5 -141.5zM547 1470 q-33 0 -52.5 19.5t-19.5 52.5q0 80 46 138.5t114 58.5q125 0 295 -154q45 141 104 141q72 0 72 -73q0 -78 -47 -136.5t-113 -58.5q-131 0 -295 154q-49 -142 -104 -142z" />
<glyph unicode="&#xd6;" d="M979 1458q-59 0 -92 32t-33 89t33 90t88 33t89 -33t34 -90q0 -55 -33 -88t-86 -33zM602 1458q-55 0 -89 33t-34 88q0 57 33 90t86 33q59 0 92 -33t33 -90t-33 -89t-88 -32zM788 -27q-297 0 -483 191.5t-186 495t189.5 498t482.5 194.5q297 0 483 -191.5t186 -496.5 q0 -303 -188.5 -497t-483.5 -194zM790.5 160q200.5 0 328.5 139t128 360.5t-129 363.5t-329.5 142t-328.5 -139t-128 -362q0 -221 129 -362.5t329.5 -141.5z" />
<glyph unicode="&#xd7;" horiz-adv-x="1179" d="M238 158l-13 12q-55 53 8 117l246 250l-246 245q-63 63 -8 119l13 12q55 59 118 -10l238 -250l235 250q66 70 121 10l11 -12q57 -55 -7 -119l-245 -245l245 -250q63 -63 7 -117l-13 -12q-53 -57 -119 10l-235 250l-238 -250q-61 -67 -118 -10z" />
<glyph unicode="&#xd8;" d="M209 -88q-6 -6 -27.5 3t-43 32.5t-21.5 50.5q0 43 49 100l102 113q-147 186 -147 448q0 297 188.5 495t483.5 198q225 0 399 -125l158 174q4 6 26.5 -3t43 -33t20.5 -50q0 -45 -47 -101l-88 -96q156 -188 155 -454q0 -297 -188.5 -494t-483.5 -197q-238 0 -407 129z M793 160q209 0 338 141t129 358q0 182 -93 316l-655 -729q119 -86 281 -86zM322 664q0 -176 86 -308l653 725q-119 84 -273 84q-211 0 -338.5 -141t-127.5 -360z" />
<glyph unicode="&#xd9;" horiz-adv-x="1392" d="M694 -25q-264 0 -401 143.5t-137 420.5v698q0 96 90 96h28q92 0 93 -96v-692q0 -383 329.5 -383t329.5 385v690q0 96 90 96h33q88 0 88 -96v-694q0 -276 -139.5 -422t-403.5 -146zM477 1571q-88 53 -88 125q0 35 27.5 57.5t64.5 22.5q51 0 99 -35q61 -41 123.5 -106.5 t96.5 -116t27 -58.5q-16 -6 -63 -1t-133 36t-154 76z" />
<glyph unicode="&#xda;" horiz-adv-x="1392" d="M573 1460q-6 8 28 58.5t96.5 116t121.5 106.5q53 35 99 35q39 0 65.5 -22.5t26.5 -57.5q0 -74 -86 -125q-68 -45 -154 -76t-133.5 -36t-63.5 1zM694 -25q-264 0 -401 143.5t-137 420.5v698q0 96 90 96h28q92 0 93 -96v-692q0 -383 329.5 -383t329.5 385v690q0 96 90 96 h33q88 0 88 -96v-694q0 -276 -139.5 -422t-403.5 -146z" />
<glyph unicode="&#xdb;" horiz-adv-x="1392" d="M471 1460q-29 0 -47 18.5t-18 47.5q0 74 120.5 185.5t165.5 119.5q45 -8 165 -120t120 -185q0 -29 -17.5 -47.5t-46.5 -18.5q-78 0 -223 219q-82 -121 -130 -170t-89 -49zM694 -25q-264 0 -401 143.5t-137 420.5v698q0 96 90 96h28q92 0 93 -96v-692q0 -383 329.5 -383 t329.5 385v690q0 96 90 96h33q88 0 88 -96v-694q0 -276 -139.5 -422t-403.5 -146z" />
<glyph unicode="&#xdc;" horiz-adv-x="1392" d="M883 1458q-59 0 -92 32t-33 89t32.5 90t88 33t89 -33t33.5 -90q0 -55 -32.5 -88t-85.5 -33zM506 1458q-55 0 -89 33t-34 88q0 57 33 90t86 33q59 0 92 -33t33 -90t-33 -89t-88 -32zM694 -25q-264 0 -401 143.5t-137 420.5v698q0 96 90 96h28q92 0 93 -96v-692 q0 -383 329.5 -383t329.5 385v690q0 96 90 96h33q88 0 88 -96v-694q0 -276 -139.5 -422t-403.5 -146z" />
<glyph unicode="&#xdd;" horiz-adv-x="1234" d="M512 0v543l-463 782h236l333 -606l340 541q45 74 105 73q41 0 73.5 -19.5t45 -39t8.5 -27.5l-467 -704v-543h-211zM481 1460q-6 8 28 58.5t96.5 116t121.5 106.5q53 35 98 35q39 0 66 -22.5t27 -57.5q0 -74 -87 -125q-68 -45 -153.5 -76t-133 -36t-63.5 1z" />
<glyph unicode="&#xde;" horiz-adv-x="1239" d="M260 -8q-88 0 -88 96v1149q0 96 88 96h31q92 0 92 -96v-150h242q248 0 381 -108.5t133 -308.5q0 -207 -132.5 -314.5t-390.5 -107.5h-233v-160q0 -96 -92 -96h-31zM627 913h-244v-495h240q307 0 307 247.5t-303 247.5z" />
<glyph unicode="&#xdf;" horiz-adv-x="1191" d="M1032 1087q0 -264 -293 -301q371 -98 371 -430q0 -162 -110.5 -272.5t-272.5 -110.5q-133 0 -208 46.5t-75 111.5q0 27 14.5 51.5t29 35.5t18.5 9q78 -88 199 -88q84 0 146 64.5t62 152.5q0 215 -276 287q-66 18 -93.5 47t-27.5 82q0 25 10.5 50.5t20.5 38.5t12 13 q279 -4 279 191q0 88 -61.5 139t-166.5 51q-252 0 -252 -299v-956h-202v946q0 238 116.5 356.5t339.5 118.5q190 0 305 -91t115 -243z" />
<glyph unicode="&#xe0;" horiz-adv-x="1132" d="M434 -23q-156 0 -246 77t-90 204q0 168 162 248t500 86h26v20q0 113 -62 172.5t-181 59.5q-199 0 -283 -168q0 -4 -31.5 1t-62.5 29.5t-31 67.5q0 82 115 159t307 77q209 0 319.5 -102.5t110.5 -291.5v-616h-199q2 29 0 147q-121 -170 -354 -170zM483 123q133 0 218 74.5 t85 191.5v76l-55 -2q-221 -8 -327.5 -53t-106.5 -144q0 -66 49 -104.5t137 -38.5zM371 1247q-88 53 -88 125q0 35 27.5 57.5t64.5 22.5q51 0 98 -35q61 -41 123.5 -106.5t96.5 -115.5t28 -58q-16 -6 -63.5 -1t-133 35.5t-153.5 75.5z" />
<glyph unicode="&#xe1;" horiz-adv-x="1132" d="M434 -23q-156 0 -246 77t-90 204q0 168 162 248t500 86h26v20q0 113 -62 172.5t-181 59.5q-199 0 -283 -168q0 -4 -31.5 1t-62.5 29.5t-31 67.5q0 82 115 159t307 77q209 0 319.5 -102.5t110.5 -291.5v-616h-199q2 29 0 147q-121 -170 -354 -170zM483 123q133 0 218 74.5 t85 191.5v76l-55 -2q-221 -8 -327.5 -53t-106.5 -144q0 -66 49 -104.5t137 -38.5zM410 1137q-6 8 27.5 58t96 115.5t121.5 106.5q53 35 99 35q39 0 65.5 -22.5t26.5 -57.5q0 -74 -86 -125q-68 -45 -154 -75.5t-133 -35.5t-63 1z" />
<glyph unicode="&#xe2;" horiz-adv-x="1132" d="M434 -23q-156 0 -246 77t-90 204q0 168 162 248t500 86h26v20q0 113 -62 172.5t-181 59.5q-199 0 -283 -168q0 -4 -31.5 1t-62.5 29.5t-31 67.5q0 82 115 159t307 77q209 0 319.5 -102.5t110.5 -291.5v-616h-199q2 29 0 147q-121 -170 -354 -170zM483 123q133 0 218 74.5 t85 191.5v76l-55 -2q-221 -8 -327.5 -53t-106.5 -144q0 -66 49 -104.5t137 -38.5zM344 1120q-29 0 -47 18.5t-18 47.5q0 74 120.5 185.5t165.5 119.5q45 -8 165 -119.5t120 -185.5q0 -29 -17.5 -47.5t-46.5 -18.5q-78 0 -223 219q-82 -121 -130 -170t-89 -49z" />
<glyph unicode="&#xe3;" horiz-adv-x="1132" d="M434 -23q-156 0 -246 77t-90 204q0 168 162 248t500 86h26v20q0 113 -62 172.5t-181 59.5q-199 0 -283 -168q0 -4 -31.5 1t-62.5 29.5t-31 67.5q0 82 115 159t307 77q209 0 319.5 -102.5t110.5 -291.5v-616h-199q2 29 0 147q-121 -170 -354 -170zM483 123q133 0 218 74.5 t85 191.5v76l-55 -2q-221 -8 -327.5 -53t-106.5 -144q0 -66 49 -104.5t137 -38.5zM319 1130q-33 0 -52 19.5t-19 52.5q0 80 46 138.5t114 58.5q125 0 294 -154q45 141 105 141q72 0 72 -73q0 -78 -47.5 -136.5t-112.5 -58.5q-131 0 -295 154q-50 -142 -105 -142z" />
<glyph unicode="&#xe4;" horiz-adv-x="1132" d="M434 -23q-156 0 -246 77t-90 204q0 168 162 248t500 86h26v20q0 113 -62 172.5t-181 59.5q-199 0 -283 -168q0 -4 -31.5 1t-62.5 29.5t-31 67.5q0 82 115 159t307 77q209 0 319.5 -102.5t110.5 -291.5v-616h-199q2 29 0 147q-121 -170 -354 -170zM483 123q133 0 218 74.5 t85 191.5v76l-55 -2q-221 -8 -327.5 -53t-106.5 -144q0 -66 49 -104.5t137 -38.5zM752 1118q-59 0 -92 32t-33 89t32.5 90t88 33t89 -33t33.5 -90q0 -55 -32.5 -88t-85.5 -33zM374.5 1118q-55.5 0 -89 33t-33.5 88q0 57 32.5 90t86.5 33q59 0 92 -33t33 -90t-33 -89 t-88.5 -32z" />
<glyph unicode="&#xe5;" horiz-adv-x="1132" d="M434 -23q-156 0 -246 77t-90 204q0 168 162 248t500 86h26v20q0 113 -62 172.5t-181 59.5q-199 0 -283 -168q0 -4 -31.5 1t-62.5 29.5t-31 67.5q0 82 115 159t307 77q209 0 319.5 -102.5t110.5 -291.5v-616h-199q2 29 0 147q-121 -170 -354 -170zM483 123q133 0 218 74.5 t85 191.5v76l-55 -2q-221 -8 -327.5 -53t-106.5 -144q0 -66 49 -104.5t137 -38.5zM559 1118q-109 0 -177.5 69.5t-68.5 174t71 175.5t177 71q109 0 177.5 -70t68.5 -176q0 -104 -71 -174t-177 -70zM559 1229q55 0 91 38t36 95t-37 97t-90 40t-89 -39t-36 -98q0 -55 37 -94 t88 -39z" />
<glyph unicode="&#xe6;" horiz-adv-x="1837" d="M436 -23q-156 0 -247 77t-91 204q0 168 162 248t500 86h26v20q0 113 -62 173.5t-181 60.5q-199 0 -283 -170q0 -4 -31.5 1t-62.5 29.5t-31 67.5q0 82 112.5 159t299.5 77q256 0 352 -181q131 180 371 181q213 0 344 -137.5t131 -358.5v-16q-2 -33 -15.5 -46.5 t-46.5 -13.5h-729q10 -137 103.5 -221t232.5 -84q213 0 312 164q2 4 27.5 -3t51 -32.5t25.5 -64.5q0 -76 -116.5 -150t-303.5 -74q-317 0 -434 240q-53 -106 -164 -171t-252 -65zM483 123q133 0 218 74.5t85 191.5v76l-55 -2q-221 -8 -327.5 -53t-106.5 -144 q0 -66 49 -104.5t137 -38.5zM1270 856q-121 0 -207 -78t-105 -203h588q-8 129 -81.5 205t-194.5 76z" />
<glyph unicode="&#xe7;" horiz-adv-x="1118" d="M608 -27q-223 0 -367.5 146.5t-144.5 374.5q0 223 145.5 369.5t366.5 146.5q197 0 309.5 -92.5t112.5 -180.5q0 -37 -28.5 -61.5t-58.5 -29.5t-34 1q-80 193 -297 193q-139 0 -231 -98.5t-92 -247.5q0 -152 92 -251.5t231 -99.5q217 0 297 193q8 2 35 0t56.5 -27.5 t29.5 -64.5q0 -86 -113.5 -178.5t-308.5 -92.5zM498 -459q-25 -23 -71 -9.5t-32 48.5l109 242q14 31 23.5 45t30 24.5t54.5 10.5h19q41 0 67.5 -19.5t26.5 -52.5v-10q0 -29 -66 -94z" />
<glyph unicode="&#xe8;" horiz-adv-x="1167" d="M616 -27q-233 0 -376.5 141.5t-143.5 372.5q0 225 143.5 374t360.5 149q213 0 343 -137.5t130 -358.5v-16q0 -33 -13 -46.5t-48 -13.5h-727q10 -137 103 -221t233 -84q213 0 309 164q4 4 28.5 -3t51 -32.5t26.5 -64.5q0 -76 -118 -150t-302 -74zM598 856q-121 0 -207 -79 t-104 -202h590q-8 129 -82 205t-197 76zM375 1247q-88 53 -88 125q0 35 27.5 57.5t64.5 22.5q51 0 98 -35q61 -41 124 -106.5t96.5 -115.5t27.5 -58q-16 -6 -63.5 -1t-133 35.5t-153.5 75.5z" />
<glyph unicode="&#xe9;" horiz-adv-x="1167" d="M442 1137q-6 8 28 58t96.5 115.5t121.5 106.5q53 35 98 35q39 0 66 -22.5t27 -57.5q0 -74 -86 -125q-68 -45 -154 -75.5t-133.5 -35.5t-63.5 1zM616 -27q-233 0 -376.5 141.5t-143.5 372.5q0 225 143.5 374t360.5 149q213 0 343 -137.5t130 -358.5v-16q0 -33 -13 -46.5 t-48 -13.5h-727q10 -137 103 -221t233 -84q213 0 309 164q4 4 28.5 -3t51 -32.5t26.5 -64.5q0 -76 -118 -150t-302 -74zM598 856q-121 0 -207 -79t-104 -202h590q-8 129 -82 205t-197 76z" />
<glyph unicode="&#xea;" horiz-adv-x="1167" d="M377 1120q-29 0 -47.5 18.5t-18.5 47.5q0 74 121 185.5t166 119.5q45 -8 165 -119.5t120 -185.5q0 -29 -17.5 -47.5t-46.5 -18.5q-78 0 -223 219q-82 -121 -130 -170t-89 -49zM616 -27q-233 0 -376.5 141.5t-143.5 372.5q0 225 143.5 374t360.5 149q213 0 343 -137.5 t130 -358.5v-16q0 -33 -13 -46.5t-48 -13.5h-727q10 -137 103 -221t233 -84q213 0 309 164q4 4 28.5 -3t51 -32.5t26.5 -64.5q0 -76 -118 -150t-302 -74zM598 856q-121 0 -207 -79t-104 -202h590q-8 129 -82 205t-197 76z" />
<glyph unicode="&#xeb;" horiz-adv-x="1167" d="M788 1118q-59 0 -91.5 32t-32.5 89t32.5 90t88 33t89 -33t33.5 -90q0 -55 -33 -88t-86 -33zM411.5 1118q-55.5 0 -89 33t-33.5 88q0 57 32.5 90t86.5 33q59 0 91.5 -33t32.5 -90t-32.5 -89t-88 -32zM616 -27q-233 0 -376.5 141.5t-143.5 372.5q0 225 143.5 374t360.5 149 q213 0 343 -137.5t130 -358.5v-16q0 -33 -13 -46.5t-48 -13.5h-727q10 -137 103 -221t233 -84q213 0 309 164q4 4 28.5 -3t51 -32.5t26.5 -64.5q0 -76 -118 -150t-302 -74zM598 856q-121 0 -207 -79t-104 -202h590q-8 129 -82 205t-197 76z" />
<glyph unicode="&#xec;" horiz-adv-x="532" d="M164 0v897q0 98 92 98h20q90 0 91 -98v-897h-203zM49 1247q-88 53 -88 125q0 35 27.5 57.5t64.5 22.5q51 0 99 -35q61 -41 123.5 -106.5t96.5 -115.5t27 -58q-16 -6 -63 -1t-133 35.5t-154 75.5z" />
<glyph unicode="&#xed;" horiz-adv-x="532" d="M145 1137q-6 8 28 58t96.5 115.5t121.5 106.5q53 35 98 35q39 0 66 -22.5t27 -57.5q0 -74 -86 -125q-68 -45 -154 -75.5t-133.5 -35.5t-63.5 1zM164 0v897q0 98 92 98h20q90 0 91 -98v-897h-203z" />
<glyph unicode="&#xee;" horiz-adv-x="532" d="M51 1120q-29 0 -47 18.5t-18 47.5q0 74 120.5 185.5t165.5 119.5q45 -8 165 -119.5t120 -185.5q0 -29 -17.5 -47.5t-45.5 -18.5q-78 0 -224 219q-82 -121 -130 -170t-89 -49zM164 0v897q0 98 92 98h20q90 0 91 -98v-897h-203z" />
<glyph unicode="&#xef;" horiz-adv-x="532" d="M463 1118q-59 0 -92 32t-33 89t32.5 90t88 33t89.5 -33t34 -90q0 -55 -33 -88t-86 -33zM86 1118q-55 0 -89 33t-34 88q0 57 33 90t86 33q59 0 92 -33t33 -90t-33 -89t-88 -32zM164 0v897q0 98 92 98h20q90 0 91 -98v-897h-203z" />
<glyph unicode="&#xf0;" horiz-adv-x="1249" d="M459 1014q-76 -43 -107 22l-4 11q-33 61 41 102l152 82q-141 59 -303 72q-2 6 -1 35.5t43 64.5t107 35q176 0 352 -107l215 119q70 37 107 -25l6 -6q39 -59 -43 -102l-154 -82q268 -248 269 -655q0 -283 -145.5 -445t-385.5 -162q-227 0 -363 127t-136 349 q0 205 133 331.5t348 126.5q111 0 203 -48t141 -118q-45 252 -244 402zM610 139q150 0 236 105.5t86 271.5v68q-37 68 -124 118t-183 50q-154 0 -236 -79t-82 -222q0 -145 82 -228.5t221 -83.5z" />
<glyph unicode="&#xf1;" horiz-adv-x="1210" d="M229 995q119 0 127 -159q117 174 328 174q188 0 284.5 -116t96.5 -306v-588h-203v563q0 125 -60.5 196.5t-166.5 71.5q-94 0 -166 -46t-111 -126v-659h-202v973q0 4 9 9t27.5 9t36.5 4zM356 1130q-33 0 -52 19.5t-19 52.5q0 80 46 138.5t113 58.5q125 0 295 -154 q45 141 105 141q72 0 71 -73q0 -78 -47 -136.5t-112 -58.5q-131 0 -295 154q-50 -142 -105 -142z" />
<glyph unicode="&#xf2;" horiz-adv-x="1224" d="M612 -27q-229 0 -372.5 145.5t-143.5 375.5q0 227 144.5 371.5t373.5 144.5q225 0 369.5 -146.5t144.5 -374.5q0 -225 -144.5 -370.5t-371.5 -145.5zM612.5 139q141.5 0 234.5 99.5t93 250.5q0 154 -92 254.5t-236 100.5q-141 0 -235 -99.5t-94 -251t94 -253 t235.5 -101.5zM385 1247q-88 53 -88 125q0 35 27.5 57.5t64.5 22.5q51 0 98 -35q61 -41 124 -106.5t96.5 -115.5t27.5 -58q-16 -6 -63 -1t-133 35.5t-154 75.5z" />
<glyph unicode="&#xf3;" horiz-adv-x="1224" d="M498 1137q-6 8 27.5 58t96 115.5t121.5 106.5q53 35 99 35q39 0 65.5 -22.5t26.5 -57.5q0 -74 -86 -125q-68 -45 -154 -75.5t-133 -35.5t-63 1zM612 -27q-229 0 -372.5 145.5t-143.5 375.5q0 227 144.5 371.5t373.5 144.5q225 0 369.5 -146.5t144.5 -374.5 q0 -225 -144.5 -370.5t-371.5 -145.5zM612.5 139q141.5 0 234.5 99.5t93 250.5q0 154 -92 254.5t-236 100.5q-141 0 -235 -99.5t-94 -251t94 -253t235.5 -101.5z" />
<glyph unicode="&#xf4;" horiz-adv-x="1224" d="M395 1120q-29 0 -47 18.5t-18 47.5q0 74 120.5 185.5t165.5 119.5q45 -8 165 -119.5t120 -185.5q0 -29 -17.5 -47.5t-45.5 -18.5q-78 0 -224 219q-82 -121 -130 -170t-89 -49zM612 -27q-229 0 -372.5 145.5t-143.5 375.5q0 227 144.5 371.5t373.5 144.5 q225 0 369.5 -146.5t144.5 -374.5q0 -225 -144.5 -370.5t-371.5 -145.5zM612.5 139q141.5 0 234.5 99.5t93 250.5q0 154 -92 254.5t-236 100.5q-141 0 -235 -99.5t-94 -251t94 -253t235.5 -101.5z" />
<glyph unicode="&#xf5;" horiz-adv-x="1224" d="M612 -27q-229 0 -372.5 145.5t-143.5 375.5q0 227 144.5 371.5t373.5 144.5q225 0 369.5 -146.5t144.5 -374.5q0 -225 -144.5 -370.5t-371.5 -145.5zM612.5 139q141.5 0 234.5 99.5t93 250.5q0 154 -92 254.5t-236 100.5q-141 0 -235 -99.5t-94 -251t94 -253 t235.5 -101.5zM375 1130q-33 0 -52.5 19.5t-19.5 52.5q0 80 46 138.5t114 58.5q125 0 295 -154q45 141 104 141q72 0 72 -73q0 -78 -47 -136.5t-113 -58.5q-131 0 -295 154q-49 -142 -104 -142z" />
<glyph unicode="&#xf6;" horiz-adv-x="1224" d="M807 1118q-59 0 -92 32t-33 89t33 90t88 33t89 -33t34 -90q0 -55 -33 -88t-86 -33zM430 1118q-55 0 -89 33t-34 88q0 57 33 90t86 33q59 0 92 -33t33 -90t-33 -89t-88 -32zM612 -27q-229 0 -372.5 145.5t-143.5 375.5q0 227 144.5 371.5t373.5 144.5q225 0 369.5 -146.5 t144.5 -374.5q0 -225 -144.5 -370.5t-371.5 -145.5zM612.5 139q141.5 0 234.5 99.5t93 250.5q0 154 -92 254.5t-236 100.5q-141 0 -235 -99.5t-94 -251t94 -253t235.5 -101.5z" />
<glyph unicode="&#xf7;" horiz-adv-x="1290" d="M631 774q-104 0 -105 105v22q0 104 105 105h24q106 0 107 -105v-22q0 -104 -107 -105h-24zM631 78q-104 0 -105 104v23q0 104 105 104h24q106 0 107 -104v-23q0 -104 -107 -104h-24zM272 457q-88 0 -88 78v14q0 78 88 78h744q88 0 88 -78v-14q0 -78 -88 -78h-744z" />
<glyph unicode="&#xf8;" horiz-adv-x="1224" d="M182 -94q-4 -4 -25.5 4t-42 27.5t-20.5 44.5q0 39 47 92l78 86q-111 139 -110 329q0 219 147 370t365 151q158 0 290 -90l142 157q4 4 25.5 -4t42 -27.5t20.5 -44.5q0 -39 -45 -90l-80 -86q113 -141 112 -331q0 -219 -147 -370t-365 -151q-162 0 -290 90zM618 139 q141 0 233.5 100.5t92.5 252.5q0 117 -59 204l-449 -493q84 -64 182 -64zM352 289l449 493q-80 61 -183 62q-141 0 -233 -100.5t-92 -251.5q0 -111 59 -203z" />
<glyph unicode="&#xf9;" horiz-adv-x="1210" d="M983 -8q-125 0 -129 155q-119 -172 -328 -172q-188 0 -283.5 115t-95.5 307v588h201v-563q0 -127 61.5 -198.5t174.5 -71.5q184 0 270 174v659h201v-971q0 -4 -9.5 -9t-27 -9t-35.5 -4zM373 1247q-88 53 -88 125q0 35 27.5 57.5t64.5 22.5q51 0 98 -35q61 -41 124 -106.5 t96.5 -115.5t27.5 -58q-16 -6 -63.5 -1t-133 35.5t-153.5 75.5z" />
<glyph unicode="&#xfa;" horiz-adv-x="1210" d="M983 -8q-125 0 -129 155q-119 -172 -328 -172q-188 0 -283.5 115t-95.5 307v588h201v-563q0 -127 61.5 -198.5t174.5 -71.5q184 0 270 174v659h201v-971q0 -4 -9.5 -9t-27 -9t-35.5 -4zM502 1137q-6 8 27.5 58t96 115.5t122.5 106.5q53 35 98 35q39 0 65.5 -22.5 t26.5 -57.5q0 -74 -86 -125q-68 -45 -154 -75.5t-133 -35.5t-63 1z" />
<glyph unicode="&#xfb;" horiz-adv-x="1210" d="M983 -8q-125 0 -129 155q-119 -172 -328 -172q-188 0 -283.5 115t-95.5 307v588h201v-563q0 -127 61.5 -198.5t174.5 -71.5q184 0 270 174v659h201v-971q0 -4 -9.5 -9t-27 -9t-35.5 -4zM385 1120q-29 0 -47.5 18.5t-18.5 47.5q0 74 121 185.5t166 119.5q45 -8 165 -119.5 t120 -185.5q0 -29 -17.5 -47.5t-46.5 -18.5q-78 0 -223 219q-82 -121 -130 -170t-89 -49z" />
<glyph unicode="&#xfc;" horiz-adv-x="1210" d="M983 -8q-125 0 -129 155q-119 -172 -328 -172q-188 0 -283.5 115t-95.5 307v588h201v-563q0 -127 61.5 -198.5t174.5 -71.5q184 0 270 174v659h201v-971q0 -4 -9.5 -9t-27 -9t-35.5 -4zM799 1118q-59 0 -92 32t-33 89t32.5 90t88 33t89.5 -33t34 -90q0 -55 -33 -88 t-86 -33zM422 1118q-55 0 -89 33t-34 88q0 57 33 90t86 33q59 0 92 -33t33 -90t-33 -89t-88 -32z" />
<glyph unicode="&#xfd;" horiz-adv-x="1081" d="M438 -399q-27 0 -53.5 12t-40.5 24.5t-12 18.5l164 399q-66 6 -86 58l-373 872h209l313 -784l279 784h206l-481 -1272q-41 -112 -125 -112zM422 1120q-6 8 27.5 58.5t96 116t122.5 106.5q53 35 98 35q39 0 65.5 -22.5t26.5 -57.5q0 -74 -86 -125q-68 -45 -154 -76 t-133 -36t-63 1z" />
<glyph unicode="&#xfe;" horiz-adv-x="1275" d="M696 -27q-113 0 -201.5 49.5t-136.5 122.5v-450q0 -96 -90 -96h-22q-90 0 -90 96v1689q0 4 9 9.5t27.5 9.5t36.5 4q129 0 129 -174v-410q127 186 344 187q201 0 331 -142.5t130 -373.5q0 -233 -130 -377t-337 -144zM659 141q137 0 222.5 96.5t85.5 254.5q0 154 -85 252 t-218 98q-221 0 -306 -199v-250q14 -111 100 -181.5t201 -70.5z" />
<glyph unicode="&#xff;" horiz-adv-x="1081" d="M438 -399q-27 0 -53.5 12t-40.5 24.5t-12 18.5l164 399q-66 6 -86 58l-373 872h209l313 -784l279 784h206l-481 -1272q-41 -112 -125 -112zM739 1118q-59 0 -92 32t-33 89t33 90t88.5 33t89 -33t33.5 -90q0 -55 -33 -88t-86 -33zM362.5 1118q-55.5 0 -89 33t-33.5 88 q0 57 32.5 90t85.5 33q59 0 92 -33t33 -90t-32.5 -89t-88 -32z" />
<glyph unicode="&#x152;" horiz-adv-x="2172" d="M788 -27q-297 0 -483 191.5t-186 495t189.5 498t482.5 194.5q98 0 198 -27h973q98 0 98 -88v-12q0 -88 -98 -88h-690q160 -137 178 -371h360q98 0 99 -84v-6q0 -88 -99 -88h-358q-12 -254 -182 -402h704q96 0 97 -84v-10q0 -92 -97 -92h-985q-101 -27 -201 -27z M790.5 160q200.5 0 328.5 139t128 360.5t-129 363.5t-329.5 142t-328.5 -139t-128 -362q0 -221 129 -362.5t329.5 -141.5z" />
<glyph unicode="&#x153;" horiz-adv-x="2011" d="M612 -27q-229 0 -372.5 145.5t-143.5 375.5q0 227 144.5 371.5t373.5 144.5q135 0 244 -60.5t172 -167.5q63 106 171 167t243 61q213 0 343 -137.5t130 -358.5v-16q0 -33 -13.5 -46.5t-48.5 -13.5h-727q10 -137 103.5 -221t232.5 -84q213 0 310 164q4 4 28.5 -3t51 -32.5 t26.5 -64.5q0 -76 -117.5 -150t-302.5 -74q-305 0 -436 222q-63 -104 -171 -163t-241 -59zM612.5 139q141.5 0 234.5 99.5t93 250.5q0 154 -92 254.5t-236 100.5q-141 0 -235 -99.5t-94 -251t94 -253t235.5 -101.5zM1442 856q-121 0 -207 -79t-105 -202h590 q-8 129 -81.5 205t-196.5 76z" />
<glyph unicode="&#x178;" horiz-adv-x="1234" d="M512 0v543l-463 782h236l333 -606l340 541q45 74 105 73q41 0 73.5 -19.5t45 -39t8.5 -27.5l-467 -704v-543h-211zM807 1458q-59 0 -92 32t-33 89t33 90t88 33t89 -33t34 -90q0 -55 -33 -88t-86 -33zM430 1458q-55 0 -89 33t-34 88q0 57 33 90t86 33q59 0 92 -33t33 -90 t-33 -89t-88 -32z" />
<glyph unicode="&#x2c6;" horiz-adv-x="1085" d="M322 1120q-29 0 -47.5 18.5t-18.5 47.5q0 74 121 185.5t166 119.5q45 -8 164.5 -119.5t119.5 -185.5q0 -29 -17 -47.5t-46 -18.5q-78 0 -223 219q-82 -121 -130 -170t-89 -49z" />
<glyph unicode="&#x2dc;" horiz-adv-x="1085" d="M299 1130q-33 0 -52.5 19.5t-19.5 52.5q0 80 46 138.5t114 58.5q125 0 295 -154q45 141 104 141q72 0 72 -73q0 -78 -47 -136.5t-113 -58.5q-131 0 -295 154q-49 -142 -104 -142z" />
<glyph unicode="&#x2000;" horiz-adv-x="915" />
<glyph unicode="&#x2001;" horiz-adv-x="1830" />
<glyph unicode="&#x2002;" horiz-adv-x="915" />
<glyph unicode="&#x2003;" horiz-adv-x="1830" />
<glyph unicode="&#x2004;" horiz-adv-x="610" />
<glyph unicode="&#x2005;" horiz-adv-x="456" />
<glyph unicode="&#x2006;" horiz-adv-x="305" />
<glyph unicode="&#x2007;" horiz-adv-x="305" />
<glyph unicode="&#x2008;" horiz-adv-x="227" />
<glyph unicode="&#x2009;" horiz-adv-x="364" />
<glyph unicode="&#x200a;" horiz-adv-x="100" />
<glyph unicode="&#x2010;" horiz-adv-x="866" d="M115 406v186h637v-186h-637z" />
<glyph unicode="&#x2011;" horiz-adv-x="866" d="M115 406v186h637v-186h-637z" />
<glyph unicode="&#x2012;" horiz-adv-x="866" d="M115 406v186h637v-186h-637z" />
<glyph unicode="&#x2013;" horiz-adv-x="1165" d="M203 412q-88 0 -88 77v19q0 78 88 78h755q88 0 89 -78v-19q0 -78 -89 -77h-755z" />
<glyph unicode="&#x2014;" horiz-adv-x="1505" d="M203 412q-88 0 -88 77v19q0 78 88 78h1100q88 0 88 -78v-19q0 -78 -88 -77h-1100z" />
<glyph unicode="&#x2018;" horiz-adv-x="503" d="M193 844q-39 0 -64 24.5t-25 71.5v8q0 57 50 125l168 260q23 31 68.5 14.5t33.5 -59.5l-107 -348q-16 -53 -36.5 -74.5t-69.5 -21.5h-18z" />
<glyph unicode="&#x2019;" horiz-adv-x="503" d="M182 862q-23 -31 -68.5 -14.5t-33.5 59.5l108 348q16 55 37 76t70 21h18q86 0 86 -97v-8q0 -61 -47 -125z" />
<glyph unicode="&#x201a;" horiz-adv-x="503" d="M166 -246q-23 -31 -69 -14.5t-34 59.5l109 348q16 55 36.5 76t70.5 21h18q86 0 86 -97v-8q0 -61 -47 -125z" />
<glyph unicode="&#x201c;" horiz-adv-x="862" d="M549 844q-39 0 -62.5 24.5t-23.5 71.5v8q0 59 49 125l168 260q25 29 70 13.5t32 -58.5l-108 -348q-14 -53 -35 -74.5t-72 -21.5h-18zM190 844q-39 0 -62.5 24.5t-23.5 71.5v8q0 55 50 125l168 260q25 31 69.5 14.5t32.5 -59.5l-109 -348q-14 -53 -34.5 -74.5t-69.5 -21.5 h-21z" />
<glyph unicode="&#x201d;" horiz-adv-x="862" d="M541 862q-23 -31 -70 -14.5t-35 59.5l111 348q12 39 20 55.5t28.5 29t55.5 12.5h21q39 0 61.5 -24.5t22.5 -72.5v-8q0 -59 -47 -125zM180 862q-20 -31 -67 -14.5t-35 59.5l110 348q14 53 35 75t70 22h18q86 0 86 -97v-8q0 -61 -47 -125z" />
<glyph unicode="&#x201e;" horiz-adv-x="862" d="M524 -246q-23 -31 -69.5 -14.5t-34.5 59.5l110 348q12 39 20.5 55.5t29 29t55.5 12.5h20q39 0 61.5 -24.5t22.5 -72.5v-8q0 -59 -47 -125zM164 -246q-20 -31 -67.5 -14.5t-35.5 59.5l111 348q14 53 34.5 75t69.5 22h19q86 0 86 -97v-8q0 -61 -47 -125z" />
<glyph unicode="&#x2022;" horiz-adv-x="745" d="M373 264q-98 0 -165 67.5t-67 166t66.5 168t165 69.5t166 -69.5t67.5 -167.5q0 -96 -68.5 -165t-164.5 -69z" />
<glyph unicode="&#x2026;" horiz-adv-x="1427" d="M1153 -14q-111 0 -111 110v25q0 113 111 112h27q115 0 114 -112v-25q0 -111 -114 -110h-27zM698 -14q-111 0 -110 110v25q0 113 110 112h27q113 0 113 -112v-25q0 -111 -113 -110h-27zM244 -14q-111 0 -111 110v25q0 113 111 112h26q113 0 113 -112v-25q0 -111 -113 -110 h-26z" />
<glyph unicode="&#x202f;" horiz-adv-x="364" />
<glyph unicode="&#x2039;" horiz-adv-x="706" d="M586 225v-8q0 -29 -20.5 -49.5t-53.5 -20.5h-4q-59 0 -157.5 82t-168 167t-69.5 103.5t69.5 103.5t168 167t157.5 82h4q33 0 53.5 -20.5t20.5 -51.5v-6q0 -78 -301 -276q301 -199 301 -273z" />
<glyph unicode="&#x203a;" horiz-adv-x="706" d="M123 225q0 76 301 273q-301 197 -301 276v6q0 31 19.5 51.5t52.5 20.5h2q59 0 158.5 -82t169 -167t69.5 -103.5t-69.5 -103.5t-169 -167t-158.5 -82h-2q-33 0 -52.5 20.5t-19.5 49.5v8z" />
<glyph unicode="&#x205f;" horiz-adv-x="456" />
<glyph unicode="&#x20ac;" horiz-adv-x="1347" d="M174 750q-82 0 -82 65v16q0 63 82 64h119q43 211 183 333t345 122q186 0 305 -83t119 -175q0 -37 -25.5 -65t-52 -37t-30.5 -3q-55 94 -131 141.5t-189 47.5q-119 0 -203 -75t-118 -206h391q80 0 80 -64v-16q0 -66 -80 -65h-412v-166h412q80 0 80 -66v-16q0 -66 -80 -66 h-391q35 -133 122 -209.5t209 -76.5q209 0 314 204q4 6 30.5 -3t53 -37.5t26.5 -65.5q0 -92 -117.5 -183.5t-304.5 -91.5q-215 0 -356 122t-182 341h-117q-82 0 -82 66v16q0 66 82 66h102v166h-102z" />
<glyph unicode="&#x2122;" horiz-adv-x="1460" d="M774 688q-55 0 -55 66v510q0 70 61 69h56q51 0 69 -47l123 -301l123 301q18 47 68 47h53q61 0 61 -69v-510q0 -66 -55 -66h-18q-55 0 -56 66v387l-112 -289q-4 -12 -7.5 -17.5t-17.5 -10.5t-41 -5q-25 0 -38 4t-16 8.5t-7 16.5q-2 2 -2 4l-115 287v-385q0 -66 -51 -66 h-23zM129 1204q-63 0 -63 60v6q0 57 63 57h432q61 0 62 -57v-6q0 -59 -62 -60h-147v-450q0 -66 -62 -66h-18q-57 0 -58 66v450h-147z" />
<glyph unicode="&#xe000;" horiz-adv-x="995" d="M0 995h995v-995h-995v995z" />
<glyph unicode="&#xfb01;" horiz-adv-x="1253" d="M47 819v166h205v74q0 362 313 362q109 0 165 -37.5t56 -95.5q0 -27 -11 -49t-23.5 -31.5t-14.5 -7.5q-57 57 -147 57q-74 0 -107.5 -48t-33.5 -152v-72h253v-166h-249v-819h-201v819h-205zM887 0v897q0 98 90 98h22q90 0 91 -98v-897h-203zM989 1196q-57 0 -89 29.5 t-32 83.5q0 55 32 84.5t89 29.5q121 0 121 -114q0 -113 -121 -113z" />
<glyph unicode="&#xfb02;" horiz-adv-x="1253" d="M47 819v166h205v74q0 362 313 362q109 0 165 -37.5t56 -95.5q0 -27 -11 -49t-23.5 -31.5t-14.5 -7.5q-57 57 -147 57q-74 0 -107.5 -48t-33.5 -152v-72h253v-166h-249v-819h-201v819h-205zM887 0v1384q0 4 10 9.5t27.5 9.5t36.5 4q129 0 129 -174v-1233h-203z" />
<glyph unicode="&#xfb03;" horiz-adv-x="2101" d="M1733 0v897q0 98 92 98h20q90 0 91 -98v-897h-203zM1835 1196q-57 0 -89 29.5t-32 83.5q0 115 123 114q119 0 119 -114q0 -113 -121 -113zM831 819v166h205v74q0 362 313 362q109 0 165 -37.5t56 -95.5q0 -27 -11 -49t-23.5 -31.5t-14.5 -7.5q-57 57 -147 57 q-74 0 -107.5 -48t-33.5 -152v-72h253v-166h-249v-819h-201v819h-205zM47 819v166h205v74q0 362 313 362q109 0 165 -37.5t56 -95.5q0 -27 -11 -49t-23.5 -31.5t-14.5 -7.5q-57 57 -147 57q-74 0 -107.5 -48t-33.5 -152v-72h253v-166h-249v-819h-201v819h-205z" />
<glyph unicode="&#xfb04;" horiz-adv-x="2101" d="M1733 0v1384q0 4 10 9.5t27.5 9.5t36.5 4q129 0 129 -174v-1233h-203zM831 819v166h205v74q0 362 313 362q109 0 165 -37.5t56 -95.5q0 -27 -11 -49t-23.5 -31.5t-14.5 -7.5q-57 57 -147 57q-74 0 -107.5 -48t-33.5 -152v-72h253v-166h-249v-819h-201v819h-205zM47 819 v166h205v74q0 362 313 362q109 0 165 -37.5t56 -95.5q0 -27 -11 -49t-23.5 -31.5t-14.5 -7.5q-57 57 -147 57q-74 0 -107.5 -48t-33.5 -152v-72h253v-166h-249v-819h-201v819h-205z" />
</font>
</defs>
</svg>
