<?xml version="1.0" standalone="no"?>
<!DOCTYPE svg PUBLIC "-//W3C//DTD SVG 1.1//EN" "http://www.w3.org/Graphics/SVG/1.1/DTD/svg11.dtd" >
<svg xmlns="http://www.w3.org/2000/svg">
<metadata>
This is a custom SVG webfont generated by Font Squirrel.
Copyright   : Generated in 2010 by FontLab Studio Copyright info pending
</metadata>
<defs>
<font id="webfontfTfSXIkJ" horiz-adv-x="1165" >
<font-face units-per-em="2048" ascent="1434" descent="-614" />
<missing-glyph horiz-adv-x="360" />
<glyph unicode=" "  horiz-adv-x="360" />
<glyph unicode="&#x09;" horiz-adv-x="360" />
<glyph unicode="&#xa0;" horiz-adv-x="360" />
<glyph unicode="!" horiz-adv-x="544" d="M256 352q-23 0 -30 9.5t-3 33.5l164 930h133l-237 -942q-7 -31 -27 -31zM180 -10q-76 0 -76 55q0 57 27 82q20 20 57 20q76 0 76 -53q0 -57 -24 -84q-21 -20 -60 -20z" />
<glyph unicode="&#x22;" horiz-adv-x="749" d="M600 838q-23 0 -30 9t-5 36l58 442h141l-131 -448q-13 -39 -33 -39zM322 838q-23 0 -30 9t-5 36l57 442h141l-131 -448q-12 -39 -32 -39z" />
<glyph unicode="#" horiz-adv-x="1349" d="M317 -2q-2 -6 -25.5 -3t-37.5 26.5t4 95.5l80 260h-275q2 8 5 24l12 54l2 10h283l122 395h-272q2 8 4 25l12 53l2 10h279l117 379q2 6 25.5 3t38 -26.5t-4.5 -95.5l-80 -260h359l116 379q2 6 26 3t38 -26.5t-4 -95.5l-80 -260h272q-2 -8 -4 -24l-12 -54l-2 -10h-283 l-121 -395h273q-2 -8 -4 -25l-13 -51l-2 -12h-280l-115 -379q-2 -6 -25.5 -3t-38 26.5t4.5 95.5l80 260h-359zM457 463h364l123 399h-364z" />
<glyph unicode="$" horiz-adv-x="1155" d="M383 -201l41 191q-178 31 -283 135q-76 76 -75 143q0 23 15 38.5t30.5 18.5t17.5 -1q72 -203 315 -246l121 559q-152 61 -234.5 138t-82.5 212q0 154 119.5 256.5t316.5 102.5h29l39 174h90l-39 -183q166 -29 254 -120q66 -66 65 -127q0 -23 -15 -38.5t-30.5 -18.5 t-17.5 1q-68 178 -281 213l-114 -540q80 -33 130 -58.5t104 -67.5t80 -98.5t26 -130.5q0 -170 -119 -271t-334 -101h-39l-39 -181h-90zM557 68q168 0 256 73.5t88 200.5q0 94 -66.5 152.5t-197.5 111.5l-113 -536q4 0 16.5 -1t16.5 -1zM590 737l110 518q-8 2 -22 2 q-143 0 -234.5 -73.5t-91.5 -186.5q0 -94 59.5 -151.5t178.5 -108.5z" />
<glyph unicode="%" horiz-adv-x="1519" d="M481 733q-111 0 -187.5 75t-76.5 193q0 139 94.5 240.5t233.5 101.5q113 0 188.5 -73.5t75.5 -194.5q0 -139 -94.5 -240.5t-233.5 -101.5zM127 -14q-4 -2 -13.5 2t-18.5 14t-9 25q0 31 55 84l1329 1237q2 2 11.5 -2.5t18.5 -14.5t9 -24q0 -33 -55 -82zM1053 -10 q-111 0 -189 74.5t-78 193.5q0 139 94.5 240.5t233.5 101.5q113 0 188.5 -73.5t75.5 -194.5q0 -139 -93 -240.5t-232 -101.5zM487 811q100 0 169 77t69 183q0 84 -54.5 139.5t-131.5 55.5q-100 0 -169 -77t-69 -183q0 -84 54 -139.5t132 -55.5zM1059 68q98 0 167.5 76.5 t69.5 183.5q0 84 -55 139t-133 55q-98 0 -168 -76.5t-70 -183.5q0 -84 55.5 -139t133.5 -55z" />
<glyph unicode="&#x26;" horiz-adv-x="1382" d="M492 -20q-195 0 -306.5 99t-111.5 259q0 334 442 430q-76 113 -76 231q0 143 98.5 245t249.5 102q127 0 206 -76t79 -195q0 -281 -407 -354l319 -420q172 199 203 471h92q-27 -303 -242 -539l27 -38q57 -76 102 -104t105 -23q0 -2 4 -19.5t-14.5 -37t-57.5 -19.5 q-59 0 -102 30.5t-103 106.5l-28 39q-209 -188 -479 -188zM614 788q190 33 277.5 94.5t87.5 190.5q0 84 -54.5 136.5t-146.5 52.5q-106 0 -172.5 -77t-66.5 -179q-1 -109 75 -218zM504 68q238 0 416 165l-357 467q-391 -74 -391 -358q0 -119 86 -196.5t246 -77.5z" />
<glyph unicode="'" horiz-adv-x="471" d="M322 838q-23 0 -30 9t-5 36l57 442h143l-133 -448q-12 -39 -32 -39z" />
<glyph unicode="(" horiz-adv-x="788" d="M510 -403q-86 0 -188 102q-190 190 -191 547q0 252 95.5 491.5t258.5 403.5q92 92 191.5 142t179.5 50q47 0 51 -38t-18 -46q-176 -10 -338 -172q-147 -147 -232.5 -373.5t-85.5 -457.5q0 -315 166 -482q68 -68 152 -92q6 -2 9 -20.5t-9 -36.5t-41 -18z" />
<glyph unicode=")" horiz-adv-x="788" d="M-74 -401q-45 0 -49 36.5t19 47.5q176 10 337 172q147 147 231.5 373.5t84.5 457.5q0 313 -164 481q-68 68 -152 93q-6 2 -9 20t8.5 36.5t41.5 18.5q84 0 189 -102q188 -193 188 -547q0 -252 -95 -491.5t-259 -403.5q-193 -192 -371 -192z" />
<glyph unicode="*" horiz-adv-x="841" d="M342 762q-16 12 4 45l131 190l-219 80q-27 10 -27 29q0 51 52 39l223 -66l6 232q2 23 9 31t25.5 8t26 -8.5t9.5 -30.5l6 -232l223 66q51 12 51 -39q0 -16 -28 -29l-218 -80l132 -190q20 -33 4 -45q-33 -33 -62 4l-143 182l-144 -182q-28 -37 -61 -4z" />
<glyph unicode="+" horiz-adv-x="1134" d="M481 78q-45 0 -35 47l80 377h-346q-45 0 -45 24q0 31 19 54q14 10 36 10h355l76 352q8 47 43 47h12q45 0 37 -47l-76 -352h346q45 0 45 -25q0 -35 -18 -53q-10 -10 -39 -10h-353l-79 -377q-10 -47 -45 -47h-13z" />
<glyph unicode="," horiz-adv-x="460" d="M-37 -266q-8 -10 -30.5 4t-14.5 26l213 396q6 2 26.5 1t43 -15.5t22.5 -36.5q0 -33 -28 -70z" />
<glyph unicode="-" horiz-adv-x="788" d="M123 463q2 10 6 26l10 52l2 12h535q-2 -8 -4 -25l-13 -53l-2 -12h-534z" />
<glyph unicode="." horiz-adv-x="460" d="M139 -10q-76 0 -76 55q0 57 25 82q20 20 59 20q76 0 76 -53q0 -57 -26 -84q-21 -20 -58 -20z" />
<glyph unicode="/" horiz-adv-x="718" d="M-45 -395h-111l895 1720h111z" />
<glyph unicode="0" horiz-adv-x="1343" d="M641 -20q-227 0 -349 132t-122 347q0 121 51 334q129 553 557 553q225 0 348 -133.5t123 -346.5q0 -123 -51 -336q-129 -550 -557 -550zM643 68q190 0 298 127t159 348q47 201 47 323q0 174 -98.5 282.5t-270.5 108.5q-193 0 -300 -126.5t-159 -350.5q-47 -201 -47 -321 q0 -174 98.5 -282.5t272.5 -108.5z" />
<glyph unicode="1" horiz-adv-x="757" d="M385 0h-102l241 1143q-63 -76 -164 -76q-84 0 -118 35q-20 20 -21 51q0 18 11.5 35.5t21.5 26t12 6.5q33 -51 121 -52q66 0 120 47.5t71 114.5h43q47 0 34 -55z" />
<glyph unicode="2" horiz-adv-x="1116" d="M258 346q-98 -98 -106 -252h782l-19 -94h-809q-23 0 -40 22.5t-17 49.5q0 205 137 346q115 115 396 217q233 86 322 157.5t89 206.5q0 113 -86 183.5t-233 70.5q-256 0 -363 -247h-17q-13 0 -28.5 16t-15.5 41q0 66 82 147q135 135 346 136q195 0 307.5 -94.5 t112.5 -252.5q0 -178 -112 -272t-372 -188q-256 -93 -356 -193z" />
<glyph unicode="3" horiz-adv-x="1132" d="M487 -20q-242 0 -370 129q-88 88 -88 172q0 31 17 49t33.5 22t18.5 0q18 -125 122 -204.5t274 -79.5q178 0 277 94t99 233q0 119 -82.5 189.5t-238.5 70.5h-170l18 88h174q209 0 301.5 77t92.5 204q0 102 -87 169t-219 67q-115 0 -213 -53.5t-153 -137.5q-2 -4 -14.5 1 t-24.5 18.5t-12 29.5q0 39 49 88q139 139 375 140q178 0 292.5 -85t114.5 -233q0 -133 -84 -226t-241 -114q111 -31 170 -107.5t59 -183.5q0 -170 -125 -293.5t-365 -123.5z" />
<glyph unicode="4" horiz-adv-x="1216" d="M782 0h-98l82 395h-643q-4 0 -12.5 10.5t-15.5 28t-7 33.5q0 45 53 98l727 711q61 59 111 59q86 0 72 -75l-166 -773h248l-19 -92h-248zM188 487h600l160 750z" />
<glyph unicode="5" horiz-adv-x="1136" d="M420 1233l-98 -473q115 51 251 51q205 0 324 -98.5t119 -261.5q0 -203 -135.5 -337t-366.5 -134q-248 0 -379 135q-72 74 -72 143q0 23 15.5 38t32 20.5t18.5 0.5q31 -111 133.5 -179t255.5 -68q178 0 284.5 107.5t106.5 266.5q0 131 -88 204t-256 73t-299 -72 q-63 14 -51 80l111 531q16 66 77 65h736l-19 -92h-700z" />
<glyph unicode="6" horiz-adv-x="1239" d="M618 -20q-203 0 -325.5 119.5t-122.5 344.5q0 166 65.5 397.5t194.5 358.5q74 74 159 110t210 36q197 0 309 -113q63 -63 63 -121q0 -23 -14 -39t-28.5 -21t-18.5 -1q-37 96 -121 152.5t-201 56.5q-383 0 -495 -598q145 150 385 149q190 0 306 -96.5t116 -261.5 q0 -193 -137.5 -333t-344.5 -140zM621 70q170 0 276.5 107.5t106.5 268.5q0 127 -88.5 204t-249.5 77q-240 0 -392 -170q-8 -55 -8 -115q0 -180 94.5 -276t260.5 -96z" />
<glyph unicode="7" horiz-adv-x="1093" d="M254 -6q-6 -4 -29.5 5t-33 36.5t35.5 89.5l824 1108h-815l18 92h846q4 0 15 -9t22.5 -29.5t11.5 -43.5q0 -33 -37 -82z" />
<glyph unicode="8" horiz-adv-x="1228" d="M573 -20q-217 0 -347 94t-130 250q0 141 107.5 245.5t283.5 130.5q-211 63 -211 261q0 162 133.5 273.5t340.5 111.5q186 0 305 -88.5t119 -231.5q0 -127 -91.5 -224t-255.5 -126q123 -35 186.5 -115t63.5 -180q0 -174 -138.5 -287.5t-365.5 -113.5zM711 731 q166 0 263 79t97 208q0 111 -92 176.5t-244 65.5q-162 0 -259 -83t-97 -212q0 -106 90 -170t242 -64zM578 66q180 0 288.5 88t108.5 227q0 115 -101.5 188.5t-281.5 73.5q-172 0 -282.5 -88t-110.5 -225q0 -119 102.5 -191.5t276.5 -72.5z" />
<glyph unicode="9" horiz-adv-x="1239" d="M510 -20q-197 0 -311 114q-63 61 -64 123q0 23 14.5 39t29 20.5t16.5 -0.5q37 -96 122.5 -152t204.5 -56q379 0 496 575q-145 -150 -383 -149q-197 0 -309.5 96t-112.5 272q0 201 138 342.5t345 141.5q203 0 326 -120t123 -345q0 -166 -66.5 -395.5t-195.5 -358.5 q-144 -147 -373 -147zM647 578q238 0 389 170q12 74 13 135q0 180 -94.5 276t-260.5 96q-170 0 -277.5 -109.5t-107.5 -277.5q0 -137 86 -213.5t252 -76.5z" />
<glyph unicode=":" horiz-adv-x="509" d="M317 715q-76 0 -75 55q0 53 24 82q20 20 60 20q76 0 75 -55q0 -57 -26 -82q-21 -20 -58 -20zM164 -10q-76 0 -76 55q0 57 25 82q20 20 59 20q76 0 76 -53q0 -57 -27 -84q-20 -20 -57 -20z" />
<glyph unicode=";" horiz-adv-x="509" d="M-12 -266q-8 -10 -31 4t-14 26l213 396q6 2 26.5 1t43 -15.5t22.5 -36.5q0 -33 -29 -70zM317 715q-76 0 -75 55q0 53 24 82q20 20 60 20q76 0 75 -55q0 -57 -26 -82q-21 -20 -58 -20z" />
<glyph unicode="&#x3c;" horiz-adv-x="1013" d="M766 109l-590 366q-37 20 -37 62q0 55 64 86l727 358q4 2 11 -4t14.5 -18.5t7.5 -24.5q0 -37 -68 -72l-655 -321l503 -312q63 -35 60 -75q-2 -14 -10.5 -25.5t-15.5 -16.5t-11 -3z" />
<glyph unicode="=" horiz-adv-x="1134" d="M250 715q-47 0 -47 24q0 39 18 58q10 10 41 10h742q49 0 49 -25q0 -35 -21 -55q-12 -12 -39 -12h-743zM152 262q-47 0 -48 25q0 33 21 57q14 10 39 10h743q47 0 47 -24q0 -41 -20 -58q-8 -10 -39 -10h-743z" />
<glyph unicode="&#x3e;" horiz-adv-x="1013" d="M109 109q-2 -2 -9.5 4t-14.5 19t-7 26q-4 37 65 71l658 322l-506 309q-63 37 -57 76q2 14 9 26.5t15 17.5t12 1l590 -365q37 -25 37 -61q0 -55 -65 -86z" />
<glyph unicode="?" horiz-adv-x="1007" d="M356 356l17 74q23 111 76 168t196 107q141 51 210 116.5t69 179.5q0 111 -80 182.5t-215 71.5q-123 0 -211 -70.5t-129 -185.5q-2 -4 -18.5 0.5t-32 19.5t-15.5 36q0 74 90 164q127 127 322 127q176 0 282.5 -96.5t106.5 -248.5q0 -256 -317 -366q-133 -45 -177.5 -89 t-62.5 -128l-14 -62h-97zM365 -10q-78 0 -78 55q0 57 26 82q20 20 58 20q78 0 78 -53t-27 -84q-20 -20 -57 -20z" />
<glyph unicode="@" horiz-adv-x="1574" d="M819 963q78 0 135.5 -40t77.5 -102l27 127h94l-76 -360q-35 -170 111 -170q109 0 176.5 109.5t67.5 269.5q0 213 -148.5 345t-386.5 132q-274 0 -463.5 -206t-189.5 -490q0 -229 153.5 -377t407.5 -148q201 0 344 99q27 20 53 20q18 0 32.5 -21.5t8.5 -29.5 q-72 -59 -192.5 -100t-251.5 -41q-291 0 -462 163.5t-171 427.5q0 319 213 547t526 228q274 0 439 -148.5t165 -396.5q0 -199 -92 -329t-241 -130q-90 0 -139.5 40t-57.5 105q-80 -137 -242 -137q-104 0 -171.5 66.5t-67.5 181.5q0 141 93 253t228 112zM762 428 q84 0 148.5 59.5t80.5 141.5l21 96q-12 72 -60.5 115t-126.5 43q-100 0 -165.5 -83t-65.5 -192q0 -82 48 -131t120 -49z" />
<glyph unicode="A" horiz-adv-x="1292" d="M70 0h-119l780 1300q20 35 66 35q61 0 71 -47l265 -1288h-107l-90 459h-596zM391 549h527l-132 670z" />
<glyph unicode="B" horiz-adv-x="1284" d="M92 0l266 1262q10 63 76 63h367q397 0 397 -293q0 -285 -307 -352q123 -27 190.5 -97.5t67.5 -176.5q0 -184 -122 -295t-394 -111h-541zM213 92h426q213 0 309 79t96 235q0 111 -83.5 169t-239.5 58h-393zM346 723h383q176 0 270.5 83t94.5 214q-6 213 -303 213h-334z " />
<glyph unicode="C" horiz-adv-x="1394" d="M748 -20q-266 0 -426 152.5t-160 412.5q0 328 210 564.5t517 236.5q248 0 387 -144q88 -88 88 -176q0 -25 -15.5 -41t-30.5 -18t-22 0q-39 137 -143 213.5t-270 76.5q-260 0 -436.5 -205.5t-176.5 -492.5q0 -223 131 -356t347 -133q154 0 265 67.5t173 169.5q2 4 14 -1 t24.5 -19.5t12.5 -32.5q0 -49 -74 -125q-66 -63 -176 -106t-239 -43z" />
<glyph unicode="D" horiz-adv-x="1396" d="M92 0l268 1262q10 63 74 63h219q309 0 481.5 -146.5t172.5 -408.5q0 -338 -214 -554t-604 -216h-397zM215 90h291q336 0 514 187.5t178 478.5q0 225 -144.5 352t-406.5 127h-190z" />
<glyph unicode="E" horiz-adv-x="1218" d="M92 0l268 1262q14 63 74 63h826l-19 -92h-784l-109 -508h617l-19 -90h-616l-115 -541h805l-21 -94h-907z" />
<glyph unicode="F" horiz-adv-x="1140" d="M92 0l268 1262q10 63 74 63h791l-19 -92h-749l-117 -551h569l-18 -90h-572l-126 -592h-101z" />
<glyph unicode="G" horiz-adv-x="1484" d="M743 -20q-260 0 -419.5 151.5t-159.5 417.5q0 319 209 558t522 239q256 0 403 -148q78 -78 78 -151q0 -29 -16.5 -46.5t-32.5 -20.5t-20 1q-31 117 -142.5 195.5t-271.5 78.5q-268 0 -445.5 -205.5t-177.5 -490.5q0 -233 130 -362t345 -129q211 0 338 131 q70 68 105 142.5t63 217.5h-454l18 92h475q60 0 61 -48q0 -11 -3 -23l-123 -580q0 -6 -23 -6q-53 0 -52 61q0 20 5 45l21 101q-57 -98 -170 -159.5t-263 -61.5z" />
<glyph unicode="H" horiz-adv-x="1421" d="M94 0l271 1284q12 47 51 47h14q39 0 39 -36q0 -8 -2 -17l-121 -567h825l121 573q12 47 51 47h15q40 0 40 -32q0 -9 -3 -21l-273 -1278h-100l129 616h-825l-131 -616h-101z" />
<glyph unicode="I" horiz-adv-x="534" d="M115 0l282 1325h103l-283 -1325h-102z" />
<glyph unicode="J" horiz-adv-x="962" d="M360 -20q-164 0 -266 98q-55 57 -55 100q0 23 14.5 39t28.5 21.5t16 1.5q31 -76 101.5 -124t160.5 -48q125 0 198 77.5t110 247.5l198 932h101l-201 -946q-43 -203 -141.5 -301t-264.5 -98z" />
<glyph unicode="K" horiz-adv-x="1144" d="M934 -8q-47 0 -89 34.5t-116 133.5l-391 514l-145 -674h-101l273 1284q10 47 51 47h14q39 0 39 -36q0 -8 -2 -17l-123 -578l801 643q2 0 12 -4t20.5 -13t14.5 -23q1 -4 1 -8q0 -12 -9 -29q-12 -23 -45 -49l-688 -543l372 -477q63 -86 99 -111t90 -27q0 -2 2 -17 t-18.5 -32.5t-61.5 -17.5z" />
<glyph unicode="L" horiz-adv-x="1064" d="M92 0l273 1284q12 47 51 47h14q39 0 39 -36q0 -8 -2 -17l-252 -1184h643q47 0 47 -26q0 -37 -20 -58q-8 -10 -41 -10h-752z" />
<glyph unicode="M" horiz-adv-x="1574" d="M92 0l268 1262q16 70 84 69h23q35 0 49 -16.5t25 -59.5l233 -802l580 802q33 47 51 61.5t53 14.5h27q33 0 48 -21q11 -15 11 -35q0 -8 -2 -15l-268 -1260h-96l258 1214l-578 -796q-43 -59 -96 -60q-39 0 -55.5 17.5t-24.5 54.5l-233 784l-261 -1214h-96z" />
<glyph unicode="N" horiz-adv-x="1441" d="M92 0l268 1262q16 70 72 69h27q39 0 65 -57l555 -1124l252 1175h94l-270 -1270q-14 -61 -65 -61h-13q-35 0 -65 57l-568 1153l-258 -1204h-94z" />
<glyph unicode="O" horiz-adv-x="1558" d="M743 -20q-262 0 -421.5 161.5t-159.5 409.5q0 336 219 565.5t510 229.5q264 0 423 -161t159 -411q0 -334 -219.5 -564t-510.5 -230zM754 70q242 0 426 201.5t184 496.5q0 213 -130 351t-353 138q-240 0 -425.5 -202.5t-185.5 -495.5q0 -213 130.5 -351t353.5 -138z" />
<glyph unicode="P" horiz-adv-x="1183" d="M92 0l268 1262q10 63 74 63h297q215 0 329 -88t114 -254q0 -217 -136.5 -338t-390.5 -121h-342l-112 -524h-101zM326 614h340q190 0 296.5 95.5t106.5 261.5q0 262 -344 262h-268z" />
<glyph unicode="Q" horiz-adv-x="1576" d="M737 -20q-266 0 -420.5 159.5t-154.5 411.5q0 336 220 565.5t515 229.5q266 0 421 -159t155 -413q0 -180 -70 -335.5t-191 -264.5l19 -22q74 -94 143 -101q0 -2 2 -17.5t-13 -33.5t-46 -18q-43 0 -75 22.5t-81 87.5l-18 23q-187 -135 -406 -135zM748 70q182 0 337 114 l-254 328l72 57l250 -321q211 205 211 520q0 213 -129 351t-348 138q-244 0 -430.5 -201.5t-186.5 -496.5q0 -211 129.5 -350t348.5 -139z" />
<glyph unicode="R" horiz-adv-x="1214" d="M686 567h-74l244 -368q51 -80 87 -108q33 -26 89 -26q4 0 8 1q0 -2 3.5 -18.5t-18 -36t-62.5 -19.5q-51 0 -93.5 33.5t-103.5 134.5l-268 407h-183l-122 -567h-101l268 1262q10 63 74 63h316q213 0 325.5 -83t112.5 -238q0 -205 -132 -321t-370 -116zM334 655h354 q190 0 291.5 91.5t101.5 246.5q0 117 -86 179.5t-252 62.5h-286z" />
<glyph unicode="S" horiz-adv-x="1155" d="M551 -20q-264 0 -410 145q-76 76 -75 143q0 23 15 38.5t30.5 18.5t17.5 -1q39 -115 147.5 -185.5t280.5 -70.5q168 0 256 73.5t88 200.5q0 55 -21.5 97t-70.5 76t-93 55.5t-124 54t-130 58.5t-105.5 68t-82 101t-26.5 135q0 154 119.5 256.5t316.5 102.5q244 0 373 -129 q66 -66 65 -127q0 -23 -15 -38.5t-30.5 -18.5t-17.5 1q-37 98 -133.5 160.5t-245.5 62.5q-145 0 -236.5 -73.5t-91.5 -186.5q0 -57 20.5 -101t70 -79t94.5 -56.5t127 -53.5q66 -27 103.5 -45.5t88.5 -51t79 -65.5t48.5 -83t20.5 -110q0 -170 -119 -271t-334 -101z" />
<glyph unicode="T" horiz-adv-x="1234" d="M465 0l262 1233h-432q-47 0 -47 24q0 37 20 58q8 10 41 10h969q47 0 47 -25q0 -37 -20 -57q-6 -10 -41 -10h-435l-262 -1233h-102z" />
<glyph unicode="U" horiz-adv-x="1361" d="M653 -20q-270 0 -395 150q-84 101 -84 266q0 81 21 177l151 711q12 47 51 47h15q37 0 37 -33q0 -9 -3 -20l-149 -713q-19 -88 -19 -159q0 -130 62 -210q96 -124 319 -124q340 0 428 417l170 795q8 47 52 47h12q37 0 37 -33q0 -9 -2 -20l-170 -809q-107 -489 -533 -489z " />
<glyph unicode="V" horiz-adv-x="1280" d="M500 0l-258 1300q-2 12 30 25q16 6 30 6q38 0 50 -53v-4l223 -1165l709 1222q4 2 10 2q8 0 21 -3q23 -5 37 -31q4 -7 4 -17q0 -27 -29 -78l-713 -1204h-114z" />
<glyph unicode="W" horiz-adv-x="1863" d="M365 0l-50 1311q2 10 27 19q10 4 20 4q15 0 31 -9q27 -14 27 -57l33 -1176l522 975q25 53 84 53q72 0 78 -69l114 -957l549 1233q1 4 14 4q6 0 16 -1q28 -3 41 -27q4 -7 4 -20q0 -28 -22 -79l-546 -1200q0 -4 -66 -4q-72 0 -74 4l-118 1014l-551 -1018h-133z" />
<glyph unicode="X" horiz-adv-x="1218" d="M1018 -18q-55 0 -97 43t-90 145l-202 426l-586 -614q-1 -1 -3 -1q-7 0 -25 9q-32 17 -31 44q0 24 39 68l561 572l-297 651h110l262 -594l582 612q10 0 28.5 -9t29.5 -36q2 -5 3 -10q0 -25 -40 -65l-555 -570l211 -438q45 -94 80 -123q31 -25 81 -25q7 0 15 1 q0 -4 3 -22.5t-17.5 -41t-61.5 -22.5z" />
<glyph unicode="Y" d="M434 0l121 571l-334 754h111l289 -666l575 674q1 1 4 1q7 0 26 -7q32 -13 32 -43q0 -27 -44 -84l-559 -639l-118 -561h-103z" />
<glyph unicode="Z" horiz-adv-x="1210" d="M0 0l14 70l4 20l1092 1143h-772q-59 0 -59 37q0 10 5 23.5t10 22.5t7 9h963l-15 -70l-4 -20l-1093 -1141h813q59 0 59 -39q0 -10 -5 -23.5t-11.5 -22.5t-8.5 -9h-999z" />
<glyph unicode="[" horiz-adv-x="729" d="M20 -395l367 1720h381q45 0 45 -25q0 -35 -18 -53q-10 -10 -39 -10h-295l-328 -1542h289q45 0 45 -25q0 -33 -18 -55q-14 -10 -39 -10h-390z" />
<glyph unicode="\" horiz-adv-x="718" d="M393 -395l-160 1720h99l160 -1720h-99z" />
<glyph unicode="]" horiz-adv-x="729" d="M700 1325l-366 -1720h-381q-45 0 -45 24q0 35 18 54q12 12 39 12h295l328 1542h-289q-45 0 -45 23q0 37 18 55q10 10 39 10h389z" />
<glyph unicode="^" horiz-adv-x="1093" d="M432 922q-29 0 -29 26q0 43 136 166q43 39 84 72t61.5 47t24.5 14q2 0 17 -14t41 -46t50 -69q78 -117 78 -153q0 -43 -37 -43q-20 0 -40.5 25.5t-61.5 103.5l-60 108q-4 -4 -42 -45l-64 -67q-119 -125 -158 -125z" />
<glyph unicode="_" horiz-adv-x="995" d="M-6 -94q-47 0 -47 26q0 37 18 56q10 12 41 12h770q47 0 47 -27q0 -33 -18 -55q-12 -12 -41 -12h-770z" />
<glyph unicode="`" horiz-adv-x="1093" d="M823 1120q-6 -6 -43 7.5t-101.5 51.5t-125.5 89q-66 55 -66 94q0 18 14.5 30.5t33.5 12.5q31 0 88 -51q59 -49 109 -105.5t72.5 -90.5t18.5 -38z" />
<glyph unicode="a" horiz-adv-x="1228" d="M1016 -14q-74 0 -109 53q-21 32 -21 82q0 32 9 72v4q-139 -217 -383 -217q-172 0 -286.5 111.5t-114.5 303.5q0 233 155.5 413.5t382.5 180.5q137 0 233.5 -68.5t133.5 -170.5l47 219h96l-166 -774q-7 -33 -7 -57q0 -33 13 -51q23 -30 84 -32l2 -6q0 -8 -3 -18.5 t-9 -20.5t-20 -17t-37 -7zM524 66q154 0 274 109.5t150 258.5l39 176q-27 133 -115 213t-229 80q-188 0 -310 -154.5t-122 -351.5q0 -152 89 -241.5t224 -89.5z" />
<glyph unicode="b" horiz-adv-x="1224" d="M594 -20q-139 0 -237.5 70.5t-137.5 178.5l-29 -135q-23 -100 -77 -100q-10 0 -19.5 3t-14.5 5t-5 4l293 1374h98l-129 -598q143 207 373 207q172 0 289.5 -114.5t117.5 -315.5q0 -229 -149.5 -404t-372.5 -175zM600 66q186 0 302 148t116 345q0 156 -92 250t-228 94 q-127 0 -230 -73.5t-161 -190.5l-43 -193q-6 -32 -6 -63q0 -108 73 -200q93 -117 269 -117z" />
<glyph unicode="c" horiz-adv-x="1118" d="M559 -20q-195 0 -322.5 118.5t-127.5 323.5q0 225 156.5 396t381.5 171q207 0 324 -121q82 -82 82 -170q0 -27 -18.5 -43t-35 -16t-20.5 2q-16 113 -102 186.5t-228 73.5q-188 0 -314 -143.5t-126 -329.5q0 -164 99.5 -262t258.5 -98q213 0 328 192q2 2 16.5 -1 t27.5 -15.5t13 -30.5q0 -41 -63 -107q-131 -126 -330 -126z" />
<glyph unicode="d" horiz-adv-x="1228" d="M1016 -14q-72 0 -107 51q-23 33 -22 86q0 28 6 61q-141 -205 -371 -204q-170 0 -287.5 115.5t-117.5 314.5q0 229 149.5 404t372.5 175q137 0 234.5 -67.5t140.5 -173.5l135 632h98l-254 -1185q-8 -34 -8 -59q0 -32 13 -49q24 -30 85 -32l2 -6q0 -8 -3 -18.5t-9 -20.5 t-20 -17t-37 -7zM535 66q150 0 264 103t145 251l41 186q-29 135 -120 216t-232 81q-186 0 -302 -148.5t-116 -344.5q0 -156 92.5 -250t227.5 -94z" />
<glyph unicode="e" horiz-adv-x="1103" d="M520 -20q-199 0 -307.5 107.5t-108.5 283.5q0 258 174.5 438t430.5 180q156 0 245.5 -68.5t89.5 -175.5q0 -143 -125.5 -218.5t-437.5 -75.5q-125 0 -270 14q-6 -43 -6 -88q0 -143 83 -228.5t236 -85.5q221 0 340 168q2 2 14.5 -2t24.5 -16t12 -29q0 -35 -47 -80 q-123 -124 -348 -124zM702 903q-162 0 -290.5 -100.5t-180.5 -253.5q123 -16 242 -17q471 0 471 211q0 66 -63.5 113t-178.5 47z" />
<glyph unicode="f" horiz-adv-x="706" d="M258 0h-96l186 881h-198l16 88h201l26 118q66 315 301 316q109 0 164 -55q25 -25 25 -56q0 -16 -9.5 -29.5t-18.5 -18.5t-11 -3q-18 33 -61.5 54.5t-94.5 21.5q-152 0 -203 -244l-24 -104h258l-19 -88h-256z" />
<glyph unicode="g" horiz-adv-x="1224" d="M461 -403q-229 0 -352 122q-70 70 -70 134q0 29 17.5 47t35 22t19.5 0q59 -236 358 -235q315 0 389 350l39 178q-137 -205 -377 -205q-168 0 -287.5 114t-119.5 310q0 219 154.5 387t377.5 168q137 0 234.5 -68.5t132.5 -170.5l49 219h94l-199 -940q-92 -432 -495 -432z M532 96q147 0 265 97.5t147 238.5l39 178q-25 131 -116 212t-228 81q-182 0 -304 -142.5t-122 -326.5q0 -152 94 -245t225 -93z" />
<glyph unicode="h" d="M946 -14q-55 0 -89 35.5t-34 99t49 250.5q53 199 54 280q0 115 -64.5 180.5t-179.5 65.5q-227 0 -375 -256l-137 -641h-98l295 1380h98l-131 -606q131 215 360 215q152 0 242 -89t90 -232q0 -84 -57 -310q-47 -174 -47 -223q0 -76 90 -82q0 -2 1 -17.5t-16.5 -32.5 t-50.5 -17z" />
<glyph unicode="i" horiz-adv-x="471" d="M410 1231q-70 0 -70 53q0 35 19.5 58.5t52.5 23.5q70 0 69 -53q0 -35 -19 -58.5t-52 -23.5zM250 -14q-78 0 -113 52q-21 32 -21 82q0 32 9 73l166 776h96l-164 -774q-7 -33 -6 -58q0 -35 13 -52q24 -30 89 -30v-6q2 -8 -1 -18.5t-9 -20.5t-21 -17t-38 -7z" />
<glyph unicode="j" horiz-adv-x="471" d="M410 1231q-70 0 -70 53q0 35 19.5 58.5t52.5 23.5q70 0 69 -53q0 -35 -19 -58.5t-52 -23.5zM-119 -408q-104 0 -162 54q-23 23 -22 45q0 16 10 32.5t19.5 23.5t11.5 5q53 -72 147 -71q131 0 170 186l236 1102h96l-237 -1119q-54 -258 -269 -258z" />
<glyph unicode="k" horiz-adv-x="944" d="M743 -14q-53 0 -92 33.5t-123 150.5l-249 334l-109 -504h-98l295 1380h98l-182 -854l604 461q2 2 12 -2t19.5 -14t13.5 -25q1 -4 1 -7q0 -12 -9 -29q-12 -22 -43 -46l-492 -364l234 -301q63 -88 98 -108.5t100 -20.5q2 0 2 -8.5t-3 -20.5t-10 -25.5t-24.5 -21.5t-42.5 -8 z" />
<glyph unicode="l" horiz-adv-x="471" d="M250 -14q-78 0 -113 52q-21 32 -21 82q0 32 9 73l254 1187h96l-252 -1185q-7 -33 -6 -58q0 -35 13 -52q24 -30 89 -30v-6q2 -8 -1 -18.5t-9 -20.5t-21 -17t-38 -7z" />
<glyph unicode="m" horiz-adv-x="1822" d="M1606 -14q-55 0 -89 35.5t-34 99t49 250.5q53 217 53 284q0 113 -62.5 177.5t-162.5 64.5q-121 0 -206 -60.5t-155 -181.5l-139 -655h-98l123 578q10 45 10 85q0 83 -43 144q-63 90 -180 90t-201 -57.5t-160 -177.5l-141 -662h-98l209 969q0 6 20 6q58 0 58 -63 q0 -19 -5 -44l-14 -71q133 193 344 192q115 0 197 -64.5t100 -170.5q135 236 391 235q139 0 227.5 -88t88.5 -229q0 -82 -62 -314q-47 -174 -47 -223q0 -76 92 -82q2 0 1 -17.5t-17 -33.5t-49 -16z" />
<glyph unicode="n" d="M946 -14q-55 0 -89 35.5t-34 99t49 250.5q53 199 54 280q0 115 -64.5 180.5t-179.5 65.5q-227 0 -375 -256l-137 -641h-98l209 969q0 6 20 6q58 0 58 -65q0 -18 -5 -42l-20 -92q135 213 360 213q152 0 242 -89t90 -232q0 -84 -57 -310q-47 -174 -47 -223q0 -76 90 -82 q0 -2 1 -17.5t-16.5 -32.5t-50.5 -17z" />
<glyph unicode="o" horiz-adv-x="1202" d="M553 -20q-190 0 -316 124.5t-126 319.5q0 231 157.5 398t382.5 167q188 0 315.5 -126t127.5 -318q0 -231 -158 -398t-383 -167zM559 66q178 0 306 140t128 337q0 156 -98 258t-250 102q-178 0 -307 -140t-129 -337q0 -154 99 -257t251 -103z" />
<glyph unicode="p" horiz-adv-x="1224" d="M-10 -389l291 1358q0 6 20 6q58 0 58 -65q0 -18 -5 -42l-18 -86q143 207 373 207q172 0 289.5 -114.5t117.5 -315.5q0 -229 -149.5 -404t-372.5 -175q-141 0 -241.5 73.5t-133.5 175.5l-131 -618h-98zM600 66q186 0 302 148t116 345q0 156 -92 250t-228 94 q-127 0 -230 -73.5t-161 -190.5l-43 -193q-6 -32 -6 -63q0 -108 73 -200q93 -117 269 -117z" />
<glyph unicode="q" horiz-adv-x="1228" d="M772 -389l123 575q-143 -207 -373 -206q-170 0 -287.5 115.5t-117.5 314.5q0 229 149.5 404t372.5 175q137 0 235.5 -66.5t141.5 -168.5l24 118q12 55 31 79t49 24q10 0 19 -3l13 -5q5 -2 5 -4l-289 -1352h-96zM535 66q150 0 264 103t145 251l41 186q-63 297 -352 297 q-186 0 -302 -148.5t-116 -344.5q0 -156 92.5 -250t227.5 -94z" />
<glyph unicode="r" horiz-adv-x="741" d="M74 0l207 969q0 6 20 6q58 0 58 -65q0 -18 -5 -42l-20 -100q102 221 284 221q59 0 101.5 -24.5t42.5 -59.5q0 -20 -9.5 -36.5t-19.5 -22.5t-12 -4q-47 55 -129 55q-117 0 -201 -124t-129 -345l-90 -428h-98z" />
<glyph unicode="s" horiz-adv-x="972" d="M446 -20q-225 0 -350 124q-51 47 -51 89q0 18 12.5 33.5t25.5 20.5t17 3q41 -80 134.5 -134.5t218.5 -54.5q127 0 197.5 52.5t70.5 136.5q0 70 -58.5 106.5t-191.5 81.5q-70 23 -111 41.5t-90 50t-72.5 77.5t-23.5 106q0 119 98.5 197.5t253.5 78.5q209 0 324 -115 q47 -51 47 -90q0 -20 -13.5 -33.5t-26.5 -17.5t-17 0q-35 76 -123 125t-199 49q-115 0 -181.5 -54t-66.5 -128t61.5 -116t196.5 -89q68 -23 107 -40t87 -48t70.5 -74t22.5 -98q0 -127 -98.5 -203.5t-270.5 -76.5z" />
<glyph unicode="t" horiz-adv-x="741" d="M416 -20q-135 0 -196 87q-38 55 -38 142q0 50 13 110l118 562h-155l16 88h158l28 135q18 102 80 102q8 0 17.5 -3t14.5 -5t5 -4l-47 -225h311l-18 -88h-311l-121 -562q-12 -57 -12 -100q0 -155 151 -156q92 0 139 66q2 2 8.5 -4t11.5 -18.5t5 -24.5q0 -27 -25 -51 q-51 -51 -153 -51z" />
<glyph unicode="u" d="M948 -14q-72 0 -105 50q-22 32 -22 85q0 29 6 63q-123 -205 -348 -204q-186 0 -276 121q-61 82 -61 206q0 59 14 127l112 535h99l-115 -541q-13 -58 -13 -107q0 -92 45 -154q69 -95 210 -95q117 0 203.5 60.5t158.5 184.5l137 652h99l-164 -774q-8 -35 -9 -61 q0 -31 13 -47q23 -30 84 -32v-6q2 -8 -1 -18.5t-9.5 -20.5t-20.5 -17t-37 -7z" />
<glyph unicode="v" horiz-adv-x="999" d="M332 0l-99 702q-16 113 -51 155q-33 40 -94 40h-6v8q-1 4 -1 9.5t1 11.5q2 12 8 23.5t21.5 19.5t38.5 8q59 0 100 -41q55 -55 80 -242l80 -596l534 875q6 6 29.5 -1t34.5 -31q2 -5 2 -13q0 -25 -27 -72l-534 -856h-117z" />
<glyph unicode="w" horiz-adv-x="1460" d="M256 0l2 698q0 115 -32.5 158t-102.5 45q-2 14 -2 23q0 16 18 33q20 19 60 20q55 0 92 -37q62 -62 61 -236v-12l-6 -590l356 660q29 57 91 57q70 0 77 -76l70 -641l418 871q2 6 26.5 1t36.5 -29q4 -7 4 -19q0 -25 -18 -70l-420 -856h-123l-88 700l-387 -700h-133z" />
<glyph unicode="x" horiz-adv-x="1001" d="M805 -8q-63 0 -111.5 45t-111.5 176l-103 197l-420 -424q-1 0 -2 -1q-7 0 -25 10q-27 14 -27 42q0 25 44 72l381 374l-250 486h115l207 -430l440 444h2q7 0 26 -9q28 -15 28 -43q0 -25 -46 -71l-401 -395l129 -242q49 -94 89 -122q37 -26 100 -25h10l2 -8q0 -8 -2 -20.5 t-9.5 -26t-23.5 -21.5t-41 -8z" />
<glyph unicode="y" horiz-adv-x="997" d="M6 -410q-94 0 -137 48q-18 18 -19 43q0 14 9.5 27t18.5 19.5t13 4.5q41 -51 109 -51q59 0 121.5 52t161.5 197l82 123q-47 6 -54 66l-80 583q-14 106 -50 152q-34 43 -95 43h-6q-2 0 -2 8t2 20.5t9 24t24.5 19.5t42.5 8q53 0 86 -37q66 -66 86 -246l73 -588l539 863 q10 0 58.5 -1t45.5 -3l-667 -1055q-117 -186 -196 -253t-175 -67z" />
<glyph unicode="z" horiz-adv-x="1011" d="M14 0v76l842 809h-592q-53 0 -53 35q0 12 8 30.5t12 18.5h752v-74l-844 -811h615q53 0 53 -35q0 -12 -8 -30.5t-13 -18.5h-772z" />
<glyph unicode="{" horiz-adv-x="876" d="M571 -403q-74 0 -163 90q-94 96 -130 252.5t-10 343.5l-133 102q-37 27 -46 46.5t-1 55.5q6 35 20.5 50.5t65.5 35.5l170 78q78 336 254 512q86 86 174 128t150 42q29 0 39 -18.5t5 -39t-18 -26.5q-166 -27 -291 -151q-143 -145 -227 -508l-258 -111l203 -155 q-66 -401 100 -570q61 -59 137 -82q6 -4 9.5 -22.5t-9 -35.5t-41.5 -17z" />
<glyph unicode="|" horiz-adv-x="540" d="M80 -395q-47 0 -35 53l346 1626q8 47 53 47h11q45 0 32 -53l-346 -1626q-8 -47 -53 -47h-8z" />
<glyph unicode="}" horiz-adv-x="876" d="M-55 -403q-29 0 -40 18t-6 38.5t17 27.5q168 27 293 151q143 145 227 508l258 111l-202 155q66 403 -103 568q-57 59 -135 83q-8 2 -10 20.5t9 37t40 18.5q74 0 164 -90q96 -96 132 -252.5t9 -343.5l133 -102q35 -27 45 -47.5t2 -55.5q-6 -35 -20.5 -50t-65.5 -36 l-170 -77q-78 -338 -256 -512q-84 -86 -172 -128t-149 -42z" />
<glyph unicode="~" horiz-adv-x="1091" d="M653 342q-76 0 -147 84q-53 59 -88 59q-51 0 -80 -86q-14 -45 -49 -45q-16 0 -35 13q37 203 176 202q76 0 148 -84q49 -61 88 -61q51 0 79 86q16 47 48 47q20 0 34 -14q-35 -201 -174 -201z" />
<glyph unicode="&#xa1;" horiz-adv-x="544" d="M434 1178q-76 0 -76 55t27 82q20 20 57 20q76 0 76 -55q0 -57 -24 -82q-21 -20 -60 -20zM186 -6q-43 0 -59 13t-6 50l219 885q8 31 29 31q39 0 30 -43l-155 -885q-9 -51 -58 -51z" />
<glyph unicode="&#xa2;" horiz-adv-x="1146" d="M467 -201q-47 0 -37 47q4 14 9 39l17 77q11 52 17 87l6 35q-147 33 -238 146.5t-91 283.5q0 225 157.5 396t384.5 169l47 219q8 47 41 48h11q47 0 36 -48l-47 -225q145 -23 232 -112q82 -82 82 -170q0 -29 -17.5 -45.5t-34 -15.5t-22.5 3q-12 98 -81 169t-179 87 l-176 -829q4 0 12 -1t12 -1q211 0 330 192q2 4 15.5 0t26.5 -15t13 -30q0 -43 -63 -106q-127 -127 -330 -127q-20 0 -33 2l-47 -228q-10 -47 -43 -47h-10zM504 172l174 821q-184 -6 -305 -149.5t-121 -323.5q0 -135 68.5 -227t183.5 -121z" />
<glyph unicode="&#xa3;" horiz-adv-x="1187" d="M74 0q-47 0 -47 27q0 31 20 55q10 12 41 12h127l131 455h-178q-47 0 -47 26q0 31 18 54q16 12 39 12h195l71 250q70 246 169.5 352.5t260.5 106.5q150 0 244 -90q63 -66 64 -132q0 -29 -17.5 -47t-32.5 -18h-20q-20 96 -84.5 147.5t-159.5 51.5q-117 0 -191.5 -88.5 t-133.5 -294.5l-70 -238h377q47 0 47 -27q0 -31 -18 -53q-14 -12 -41 -12h-389l-134 -455h670q57 0 57 -39q0 -10 -5 -23.5t-10 -22.5t-7 -9h-946z" />
<glyph unicode="&#xa4;" horiz-adv-x="1343" d="M225 786q-45 0 -45 25q0 33 19 51q12 12 39 12h157q76 201 187 312q160 160 383 160q188 0 299 -115q72 -68 71 -158q0 -27 -17.5 -44t-31.5 -18t-18 1q-29 117 -109 182.5t-205 65.5q-174 0 -303 -130q-98 -98 -155 -256h475q43 0 43 -24q0 -39 -19 -53q-8 -10 -37 -11 h-491q-35 -123 -45 -237h479q43 0 43 -25q0 -37 -18 -51q-8 -10 -37 -10h-469q4 -178 99 -286.5t253 -108.5q217 0 344 204q2 2 14.5 -2t23.5 -17t11 -30q0 -45 -67 -112q-55 -57 -142.5 -94t-179.5 -37q-217 0 -335.5 128t-123.5 355h-161q-45 0 -45 22q0 35 18 54 q10 10 39 10h154q10 117 45 237h-142z" />
<glyph unicode="&#xa5;" horiz-adv-x="1202" d="M494 -6q-43 0 -33 47l45 211h-348q-45 0 -45 24q0 31 18 54q14 10 37 10h356l41 203h-348q-43 0 -43 22q0 37 19 53q8 10 36 11h326l-289 669q0 4 8.5 12.5t22.5 13.5t29.5 6t31 -10t25.5 -34l254 -620l534 667q6 6 31 -4t31 -36.5t-43 -92.5l-477 -571h317q43 0 43 -23 q0 -37 -18 -53q-8 -10 -37 -10h-356l-44 -203h351q43 0 43 -25q0 -37 -19 -53q-8 -10 -37 -10h-356l-45 -211q-10 -47 -55 -47h-6z" />
<glyph unicode="&#xa7;" horiz-adv-x="1095" d="M436 -322q-256 0 -381 125q-68 70 -67 129q0 23 15 40.5t30.5 23.5t17.5 4q33 -104 130.5 -168.5t260.5 -64.5q145 0 226.5 63.5t81.5 163.5q0 43 -19.5 75.5t-68 61.5t-86 44t-119.5 44t-128 49.5t-100.5 56t-80 83t-25.5 108.5q0 117 83 189.5t208 95.5 q-147 84 -148 225q0 137 111.5 228.5t296.5 91.5q225 0 346 -121q61 -61 61 -117q0 -23 -15 -40t-30.5 -21.5t-19.5 0.5q-35 94 -124 153.5t-226.5 59.5t-218 -63.5t-80.5 -158.5q0 -37 16 -67.5t36.5 -50t68 -44t77 -37t97.5 -36.5q82 -31 124.5 -50.5t97 -54t79 -80 t24.5 -104.5q0 -121 -82 -194.5t-207 -94.5q152 -78 152 -219q0 -145 -110.5 -236.5t-303.5 -91.5zM602 268q117 6 202 68.5t85 159.5q0 84 -69.5 129t-221.5 98q-43 12 -96 35q-119 -12 -200 -70.5t-81 -150.5q0 -88 73 -137.5t226 -100.5q8 -2 82 -31z" />
<glyph unicode="&#xa8;" horiz-adv-x="1093" d="M858 1116q-76 0 -76 60q0 39 20.5 65.5t59.5 26.5q76 0 76 -60q0 -39 -20.5 -65.5t-59.5 -26.5zM532 1116q-76 0 -75 60q0 39 20.5 65.5t57.5 26.5q78 0 77 -60q0 -39 -21.5 -65.5t-58.5 -26.5z" />
<glyph unicode="&#xa9;" horiz-adv-x="1603" d="M838 -20q-293 0 -479.5 190t-186.5 489q0 295 190.5 491t477.5 196q295 0 481 -190.5t186 -489.5q0 -295 -190 -490.5t-479 -195.5zM842 53q256 0 419.5 171t163.5 440q0 264 -166.5 437t-420.5 173q-256 0 -420 -171t-164 -441q0 -264 166 -436.5t422 -172.5zM858 297 q-160 0 -258 101.5t-98 260.5q0 156 101.5 260.5t250.5 104.5q147 0 227 -84q43 -41 43 -82q0 -14 -12 -26.5t-24.5 -17.5t-14.5 -3q-57 129 -219 129q-111 0 -185.5 -81t-74.5 -197q0 -123 74.5 -202t191.5 -79q86 0 142.5 40t78.5 99q2 4 15.5 0t26 -17.5t12.5 -29.5 q0 -41 -54 -96q-80 -80 -223 -80z" />
<glyph unicode="&#xaa;" horiz-adv-x="1030" d="M903 543q-63 0 -92 44t-10 126v2q-106 -178 -307 -178q-135 0 -226.5 90t-91.5 243q0 184 124 331t306 147q109 0 185.5 -54.5t103.5 -140.5l18 90q10 51 27.5 71.5t48.5 20.5q8 0 17 -3l13 -5q5 -2 5 -4l-131 -612q-12 -61 4 -86t66 -27v-6q2 -6 -1.5 -14.5t-8.5 -15.5 t-18.5 -13t-31.5 -6zM510 616q121 0 213 85t119 200l28 141q-18 100 -86.5 163t-179.5 63q-147 0 -241.5 -120t-94.5 -274q0 -117 70 -187.5t172 -70.5zM399 -10q-70 0 -69 51q0 47 22 74q16 18 54 18q70 0 69 -49q0 -51 -24 -74q-19 -20 -52 -20z" />
<glyph unicode="&#xab;" horiz-adv-x="1069" d="M817 184q-49 0 -168 131q-39 43 -70.5 85t-46 67t-14.5 31q0 23 217 182q184 133 234 133q35 0 35 -37q0 -47 -216 -184l-82 -53q-60 -39 -98 -60q25 -20 125 -110q80 -76 102.5 -101.5t22.5 -48.5q0 -14 -12.5 -24.5t-28.5 -10.5zM463 178q-53 0 -184 144 q-145 162 -146 192q0 4 21.5 25.5t68.5 60.5t109 84q174 127 223 127q35 0 35 -37q0 -45 -195 -168q-147 -96 -172 -110q59 -49 137 -121q88 -82 114 -110.5t28 -51.5q2 -14 -10.5 -24.5t-28.5 -10.5z" />
<glyph unicode="&#xad;" horiz-adv-x="788" d="M123 463q2 10 6 26l10 52l2 12h535q-2 -8 -4 -25l-13 -53l-2 -12h-534z" />
<glyph unicode="&#xae;" horiz-adv-x="1603" d="M838 -20q-293 0 -479.5 190t-186.5 489q0 295 190.5 491t477.5 196q295 0 481 -190.5t186 -489.5q0 -295 -190 -490.5t-479 -195.5zM842 53q256 0 419.5 171t163.5 440q0 264 -166.5 437t-420.5 173q-256 0 -420 -171t-164 -441q0 -264 166 -436.5t422 -172.5zM887 604 h-10l239 -252q2 -4 -3 -13t-18.5 -17.5t-27.5 -8.5q-37 0 -63 33l-224 250h-90v-240q0 -43 -39 -43h-12q-39 0 -39 47v607q0 55 49 55h207q268 0 268 -213q0 -102 -67.5 -153.5t-169.5 -51.5zM688 672h172q84 0 128 35.5t44 101.5q0 135 -178 135h-166v-272z" />
<glyph unicode="&#xaf;" horiz-adv-x="1093" d="M477 1161q-47 0 -47 27q0 31 19 53q10 12 40 12h435q49 0 49 -26q0 -33 -19 -56q-10 -10 -41 -10h-436z" />
<glyph unicode="&#xb0;" horiz-adv-x="823" d="M483 760q-111 0 -183.5 70.5t-72.5 185.5q0 137 96.5 235.5t229.5 98.5q111 0 183.5 -71t72.5 -183q0 -137 -96.5 -236.5t-229.5 -99.5zM498 840q92 0 158.5 73.5t66.5 176.5q0 78 -52.5 130t-131.5 52q-92 0 -159 -74t-67 -176q0 -78 52.5 -130t132.5 -52z" />
<glyph unicode="&#xb1;" horiz-adv-x="1298" d="M768 834l-63 -302q-10 -47 -46 -47h-12q-45 0 -35 47l64 302h-295q-45 0 -45 24q0 33 18 51q10 12 37 13h301l66 299q12 49 43 49h14q45 0 35 -49l-64 -299h293q45 0 45 -25q0 -33 -18 -51q-12 -12 -37 -12h-301zM231 262q-47 0 -47 25q0 37 19 55q10 12 39 12h745 q47 0 47 -24q0 -35 -20 -56q-10 -12 -39 -12h-744z" />
<glyph unicode="&#xb2;" horiz-adv-x="757" d="M221 784q-47 -47 -53 -120h385q53 0 53 -33q0 -10 -5 -21.5t-9 -18.5t-6 -7h-465q-16 0 -28.5 17t-10.5 42q6 115 80 193q63 63 213 116q123 43 172 79t49 104q0 55 -45 88.5t-119 33.5q-133 0 -188 -131h-16q-13 0 -27.5 12.5t-14.5 35.5q0 39 47 90q80 76 209 75 q113 0 179.5 -54t66.5 -146q0 -98 -63.5 -150.5t-202.5 -101.5q-152 -54 -201 -103z" />
<glyph unicode="&#xb3;" horiz-adv-x="757" d="M334 571q-141 0 -219 74q-47 47 -47 94q0 27 15 42.5t30.5 18.5t17.5 -1q8 -66 61.5 -108t143.5 -42q88 0 139 46t51 116q0 55 -40 90t-115 35h-58q-37 0 -37 24.5t15 38.5q10 10 39 11h65q184 0 185 135q0 51 -43 84t-113 33q-133 0 -193 -105q-4 -2 -15 1t-23.5 13.5 t-12.5 28.5q0 29 31 57q78 82 219 82q102 0 174 -52t72 -130q0 -160 -180 -190q125 -37 125 -160q0 -96 -73 -166t-214 -70z" />
<glyph unicode="&#xb4;" horiz-adv-x="1093" d="M543 1120q-4 4 29.5 39t99 88t135.5 99q55 41 94 40q18 0 30.5 -12t12.5 -28q0 -35 -86 -93q-74 -45 -150.5 -79.5t-119.5 -47t-45 -6.5z" />
<glyph unicode="&#xb6;" horiz-adv-x="1222" d="M883 -6q-47 0 -35 53l262 1237q12 47 51 47h13q51 0 36 -53l-262 -1237q-12 -47 -51 -47h-14zM674 -6q-47 0 -35 53l121 576h-135q-436 0 -437 295q0 182 121 294.5t379 112.5h250q74 0 57 -72l-256 -1212q-12 -47 -51 -47h-14z" />
<glyph unicode="&#xb7;" horiz-adv-x="491" d="M248 432q-76 0 -76 53q0 57 27 84q18 20 57 21q76 0 76 -55q0 -57 -27 -82q-20 -21 -57 -21z" />
<glyph unicode="&#xb8;" horiz-adv-x="1093" d="M229 -449q-8 -10 -29.5 5.5t-15.5 25.5l36 54l69 105l78 118l30 47q2 2 23.5 -1t43 -17.5t21.5 -37.5q0 -35 -34 -71z" />
<glyph unicode="&#xb9;" horiz-adv-x="757" d="M131 584q-20 0 -29.5 9t-7.5 23q0 18 6 27q10 23 47 23h166l115 530q-49 -53 -121 -53q-90 0 -94 69q0 18 9 34t17.5 22t10.5 4q23 -45 84 -45q43 0 82 29.5t53 74.5h39q41 0 33 -47l-138 -618h156q18 0 28.5 -9.5t8.5 -23.5q0 -18 -8 -27q-8 -23 -45 -22h-412z" />
<glyph unicode="&#xba;" horiz-adv-x="968" d="M541 535q-156 0 -256.5 99t-100.5 257q0 186 126 320.5t308 134.5q156 0 257.5 -99.5t101.5 -255.5q0 -188 -127 -322t-309 -134zM389 -10q-70 0 -70 51q0 47 23 74q16 18 53 18q70 0 70 -49q0 -51 -25 -74q-18 -20 -51 -20zM547 614q137 0 236.5 111t99.5 262 q0 119 -77 199t-194 80q-137 0 -236.5 -111t-99.5 -262q0 -119 77 -199t194 -80z" />
<glyph unicode="&#xbb;" horiz-adv-x="1069" d="M520 180q-35 0 -35 37q0 45 193 168q133 88 172 111q-55 45 -137 120q-88 80 -114 110t-28 50q0 14 11.5 24.5t27.5 10.5q55 0 185 -141q145 -162 145 -193q0 -6 -21.5 -27.5t-68.5 -60.5t-109 -84q-174 -125 -221 -125zM104 178q-35 0 -34 35q0 49 215 184l180 115 q-53 43 -125 111q-78 72 -101.5 99.5t-23.5 49.5q0 14 12.5 24.5t28.5 10.5q49 0 168 -131q131 -150 131 -184q0 -4 -25.5 -29t-77.5 -67l-114 -87q-187 -131 -234 -131z" />
<glyph unicode="&#xbc;" horiz-adv-x="1691" d="M131 584q-20 0 -29.5 9t-7.5 23q0 18 6 27q10 23 47 23h166l115 530q-49 -53 -121 -53q-90 0 -94 69q0 18 9 34t17.5 22t10.5 4q23 -45 84 -45q43 0 82 29.5t53 74.5h39q41 0 33 -47l-138 -618h156q18 0 28.5 -9.5t8.5 -23.5q0 -18 -8 -27q-8 -23 -45 -22h-412zM233 -41 q-4 -4 -14 1t-18 18.5t-6 27.5q4 35 55 82q14 16 122 120l260 248l199 189l691 662q4 -2 12 -5.5t18.5 -15.5t6.5 -29q-6 -31 -56 -79l-128 -123l-254 -244l-201 -195zM1378 -4q-43 0 -32 47l34 166h-333q-2 0 -9.5 7t-13.5 21.5t-6 28.5q0 29 39 76l360 365q41 43 90 43 q78 0 64 -70l-84 -393h92q39 0 39 -25q0 -29 -16 -45q-8 -8 -35 -8h-97l-36 -168q-8 -45 -43 -45h-13zM1104 287h299l80 387z" />
<glyph unicode="&#xbd;" horiz-adv-x="1691" d="M193 -41q-4 -4 -14.5 1t-18.5 18.5t-6 27.5q4 35 55 82q14 16 122 120l260 248l200 189l690 662q4 -2 12 -5.5t18.5 -15.5t6.5 -29q-6 -31 -56 -79l-128 -123l-254 -244l-201 -195zM1155 201q-47 -47 -53 -121h385q53 0 53 -33q0 -10 -5 -21.5t-9 -18.5t-6 -7h-465 q-16 0 -28.5 17.5t-10.5 41.5q6 115 80 193q63 63 213 117q123 43 172 78.5t49 103.5q0 55 -45 89t-119 34q-133 0 -188 -131h-16q-13 0 -27.5 12t-14.5 35q0 39 47 90q80 76 209 76q113 0 179.5 -54.5t66.5 -146.5q0 -98 -63.5 -150.5t-202.5 -101.5q-152 -53 -201 -102z M131 584q-20 0 -29.5 9t-7.5 23q0 18 6 27q10 23 47 23h166l115 530q-49 -53 -121 -53q-90 0 -94 69q0 18 9 34t17.5 22t10.5 4q23 -45 84 -45q43 0 82 29.5t53 74.5h39q41 0 33 -47l-138 -618h156q18 0 28.5 -9.5t8.5 -23.5q0 -18 -8 -27q-8 -23 -45 -22h-412z" />
<glyph unicode="&#xbe;" horiz-adv-x="1691" d="M1378 -4q-43 0 -32 47l34 166h-333q-2 0 -9.5 7t-13.5 21.5t-6 28.5q0 29 39 76l360 365q41 43 90 43q78 0 64 -70l-84 -393h92q39 0 39 -25q0 -29 -16 -45q-8 -8 -35 -8h-97l-36 -168q-8 -45 -43 -45h-13zM233 -41q-4 -4 -14 1t-18 18.5t-6 27.5q4 35 55 82 q14 16 122 120l260 248l199 189l691 662q4 -2 12 -5.5t18.5 -15.5t6.5 -29q-6 -31 -56 -79l-128 -123l-254 -244l-201 -195zM334 571q-141 0 -219 74q-47 47 -47 94q0 27 15 42.5t30.5 18.5t17.5 -1q8 -66 61.5 -108t143.5 -42q88 0 139 46t51 116q0 55 -40 90t-115 35h-58 q-37 0 -37 24.5t15 38.5q10 10 39 11h65q184 0 185 135q0 51 -43 84t-113 33q-133 0 -193 -105q-4 -2 -15 1t-23.5 13.5t-12.5 28.5q0 29 31 57q78 82 219 82q102 0 174 -52t72 -130q0 -160 -180 -190q125 -37 125 -160q0 -96 -73 -166t-214 -70zM1104 287h299l80 387z" />
<glyph unicode="&#xbf;" horiz-adv-x="1007" d="M709 1174q-78 0 -78 55q0 57 26 82q20 20 58 20q78 0 78 -53t-27 -84q-20 -20 -57 -20zM444 -25q-176 0 -282.5 97.5t-106.5 249.5q0 256 314 366q137 47 189 83t52 83q0 61 -67 74q-2 2 0 13t15 22.5t36 11.5q47 0 80 -34t33 -85q0 -80 -61.5 -132t-213.5 -106 q-139 -49 -207.5 -116.5t-68.5 -179.5q0 -111 79.5 -182.5t215.5 -71.5q121 0 210 70.5t130 185.5q2 4 18 -0.5t31.5 -19.5t15.5 -36q0 -74 -90 -164q-129 -129 -322 -129z" />
<glyph unicode="&#xc0;" horiz-adv-x="1292" d="M70 0h-119l780 1300q20 35 66 35q61 0 71 -47l265 -1288h-107l-90 459h-596zM391 549h527l-132 670zM889 1477q-6 -6 -43 7t-101.5 51t-126.5 89q-66 55 -65 94q0 18 14.5 30.5t32.5 12.5q31 0 88 -51q59 -49 109.5 -105.5t73 -90t18.5 -37.5z" />
<glyph unicode="&#xc1;" horiz-adv-x="1292" d="M70 0h-119l780 1300q20 35 66 35q61 0 71 -47l265 -1288h-107l-90 459h-596zM391 549h527l-132 670zM729 1477q-4 4 30 38.5t99.5 88t134.5 98.5q55 41 94 41q18 0 30.5 -12.5t12.5 -28.5q0 -35 -86 -92q-74 -45 -150.5 -80t-119.5 -47t-45 -6z" />
<glyph unicode="&#xc2;" horiz-adv-x="1292" d="M70 0h-119l780 1300q20 35 66 35q61 0 71 -47l265 -1288h-107l-90 459h-596zM391 549h527l-132 670zM596 1473q-29 0 -29 24q0 45 135 166q43 39 84 71.5t61.5 47t24.5 14.5q2 0 17.5 -14.5t41 -46t50.5 -68.5q76 -115 76 -151q0 -43 -35 -43q-20 0 -40.5 25.5 t-61.5 100.5l-60 109l-106 -111q-117 -124 -158 -124z" />
<glyph unicode="&#xc3;" horiz-adv-x="1292" d="M70 0h-119l780 1300q20 35 66 35q61 0 71 -47l265 -1288h-107l-90 459h-596zM391 549h527l-132 670zM942 1470q-78 0 -147 84q-53 59 -88 60q-55 0 -80 -86q-16 -47 -49 -47q-16 0 -35 14q18 94 63 148.5t113 54.5q74 0 147 -86q51 -59 88 -60q51 0 80 86q16 47 47 48 q16 0 35 -15q-35 -201 -174 -201z" />
<glyph unicode="&#xc4;" horiz-adv-x="1292" d="M70 0h-119l780 1300q20 35 66 35q61 0 71 -47l265 -1288h-107l-90 459h-596zM391 549h527l-132 670zM985 1473q-76 0 -76 59q0 39 20.5 65.5t59.5 26.5q76 0 76 -59q0 -39 -20.5 -65.5t-59.5 -26.5zM659 1473q-76 0 -75 59q0 39 20.5 65.5t57.5 26.5q78 0 77 -59 q0 -39 -21.5 -65.5t-58.5 -26.5z" />
<glyph unicode="&#xc5;" horiz-adv-x="1292" d="M68 -4q-4 -4 -30 2t-38 31.5t27 93.5l675 1128l17 23q-113 47 -113 172q0 102 72 179t174 77q94 0 150.5 -55.5t56.5 -137.5q0 -86 -53.5 -155.5t-133.5 -89.5q6 -18 7 -27l249 -1210q2 -12 -30 -25q-63 -25 -80 47v4l-82 408h-596zM393 551h527l-134 668zM815 1323 q70 0 117 54.5t47 125.5q0 51 -35 90t-94 39q-72 0 -119 -54t-47 -126q0 -51 36 -90t95 -39z" />
<glyph unicode="&#xc6;" horiz-adv-x="1798" d="M68 -4q-8 -4 -32 1t-38 30.5t27 95.5l688 1147q33 55 90 55h999q0 -8 -4 -25q0 -6 -5 -28.5t-5 -28.5l-4 -10h-903l104 -508h555l-6 -25l-10 -55l-4 -10h-516l110 -541h467q-2 -8 -4 -26q-2 -10 -7 -32t-5 -26l-2 -10h-465q-39 0 -57.5 14.5t-26.5 53.5l-78 391h-596z M391 549h527l-132 670z" />
<glyph unicode="&#xc7;" horiz-adv-x="1394" d="M748 -20q-266 0 -426 152.5t-160 412.5q0 328 210 564.5t517 236.5q248 0 387 -144q88 -88 88 -176q0 -25 -15.5 -41t-30.5 -18t-22 0q-39 137 -143 213.5t-270 76.5q-260 0 -436.5 -205.5t-176.5 -492.5q0 -223 131 -356t347 -133q154 0 265 67.5t173 169.5q2 4 14 -1 t24.5 -19.5t12.5 -32.5q0 -49 -74 -125q-66 -63 -176 -106t-239 -43zM504 -449q-8 -10 -29.5 5.5t-15.5 25.5l36 54l68 105l78 118l31 47q2 2 23.5 -1t43 -17.5t21.5 -37.5q0 -35 -35 -71z" />
<glyph unicode="&#xc8;" horiz-adv-x="1218" d="M92 0l268 1262q14 63 74 63h826l-19 -92h-784l-109 -508h617l-19 -90h-616l-115 -541h805l-21 -94h-907zM948 1477q-6 -6 -43 7t-101.5 51t-125.5 89q-66 55 -66 94q0 18 14.5 30.5t32.5 12.5q31 0 89 -51q59 -49 109 -105.5t72.5 -90t18.5 -37.5z" />
<glyph unicode="&#xc9;" horiz-adv-x="1218" d="M727 1477q-4 4 30 38.5t99.5 88t134.5 98.5q55 41 94 41q18 0 30.5 -12.5t12.5 -28.5q0 -35 -86 -92q-74 -45 -150.5 -80t-119.5 -47t-45 -6zM92 0l268 1262q14 63 74 63h826l-19 -92h-784l-109 -508h617l-19 -90h-616l-115 -541h805l-21 -94h-907z" />
<glyph unicode="&#xca;" horiz-adv-x="1218" d="M635 1473q-29 0 -29 24q0 45 135 166q43 39 84 71.5t61.5 47t24.5 14.5q2 0 17.5 -14.5t41 -46t50.5 -68.5q76 -115 76 -151q0 -43 -35 -43q-20 0 -41 25.5t-62 100.5l-59 109l-106 -111q-117 -124 -158 -124zM92 0l268 1262q14 63 74 63h826l-19 -92h-784l-109 -508h617 l-19 -90h-616l-115 -541h805l-21 -94h-907z" />
<glyph unicode="&#xcb;" horiz-adv-x="1218" d="M1014 1473q-76 0 -76 59q0 39 20.5 65.5t59.5 26.5q76 0 76 -59q0 -39 -20.5 -65.5t-59.5 -26.5zM688 1473q-76 0 -76 59q0 39 20.5 65.5t57.5 26.5q78 0 78 -59q0 -39 -21.5 -65.5t-58.5 -26.5zM92 0l268 1262q14 63 74 63h826l-19 -92h-784l-109 -508h617l-19 -90h-616 l-115 -541h805l-21 -94h-907z" />
<glyph unicode="&#xcc;" horiz-adv-x="534" d="M115 0l282 1325h103l-283 -1325h-102zM545 1477q-6 -6 -43 7t-101.5 51t-126.5 89q-66 55 -65 94q0 18 14.5 30.5t32.5 12.5q31 0 88 -51q59 -49 109.5 -105.5t73 -90t18.5 -37.5z" />
<glyph unicode="&#xcd;" horiz-adv-x="534" d="M115 0l282 1325h103l-283 -1325h-102zM393 1477q-4 4 30 38.5t99.5 88t134.5 98.5q55 41 95 41q18 0 30.5 -12.5t12.5 -28.5q0 -35 -86 -92q-74 -45 -151 -80t-120 -47t-45 -6z" />
<glyph unicode="&#xce;" horiz-adv-x="534" d="M115 0l282 1325h103l-283 -1325h-102zM260 1473q-29 0 -29 24q0 45 136 166q43 39 84 71.5t61 47t25 14.5q2 0 17 -14.5t41 -46t50 -68.5q76 -115 76 -151q0 -43 -35 -43q-20 0 -40.5 25.5t-61.5 100.5l-60 109l-106 -111q-117 -124 -158 -124z" />
<glyph unicode="&#xcf;" horiz-adv-x="534" d="M115 0l282 1325h103l-283 -1325h-102zM647 1473q-76 0 -76 59q0 39 20.5 65.5t59.5 26.5q76 0 76 -59q0 -39 -20.5 -65.5t-59.5 -26.5zM322 1473q-76 0 -76 59q0 39 20.5 65.5t57.5 26.5q78 0 77 -59q0 -39 -21 -65.5t-58 -26.5z" />
<glyph unicode="&#xd0;" horiz-adv-x="1486" d="M256 0q-74 0 -57 72l114 546h-153q-45 0 -45 25q0 35 18 53q10 10 39 11h160l119 555q10 63 73 63h219q309 0 481.5 -146.5t172.5 -408.5q0 -338 -214 -554t-603 -216h-324zM303 90h293q336 0 514 187.5t178 478.5q0 225 -144.5 352t-406.5 127h-190l-113 -528h459 q45 0 45 -25q0 -31 -18 -53q-14 -10 -37 -11h-467z" />
<glyph unicode="&#xd1;" horiz-adv-x="1441" d="M92 0l268 1262q16 70 72 69h27q39 0 65 -57l555 -1124l252 1175h94l-270 -1270q-14 -61 -65 -61h-13q-35 0 -65 57l-568 1153l-258 -1204h-94zM1069 1470q-78 0 -147 84q-53 59 -88 60q-55 0 -80 -86q-16 -47 -49 -47q-16 0 -35 14q18 94 63 148.5t113 54.5q74 0 147 -86 q51 -59 88 -60q51 0 80 86q16 47 47 48q16 0 35 -15q-35 -201 -174 -201z" />
<glyph unicode="&#xd2;" horiz-adv-x="1558" d="M743 -20q-262 0 -421.5 161.5t-159.5 409.5q0 336 219 565.5t510 229.5q264 0 423 -161t159 -411q0 -334 -219.5 -564t-510.5 -230zM754 70q242 0 426 201.5t184 496.5q0 213 -130 351t-353 138q-240 0 -425.5 -202.5t-185.5 -495.5q0 -213 130.5 -351t353.5 -138z M1042 1477q-6 -6 -42.5 7t-101 51t-126.5 89q-66 55 -65 94q0 18 14 30.5t33 12.5q31 0 88 -51q59 -49 109 -105.5t72.5 -90t18.5 -37.5z" />
<glyph unicode="&#xd3;" horiz-adv-x="1558" d="M793 1477q-4 4 29.5 38.5t99 88t135.5 98.5q55 41 94 41q18 0 30.5 -12.5t12.5 -28.5q0 -35 -86 -92q-74 -45 -150.5 -80t-119.5 -47t-45 -6zM743 -20q-262 0 -421.5 161.5t-159.5 409.5q0 336 219 565.5t510 229.5q264 0 423 -161t159 -411q0 -334 -219.5 -564 t-510.5 -230zM754 70q242 0 426 201.5t184 496.5q0 213 -130 351t-353 138q-240 0 -425.5 -202.5t-185.5 -495.5q0 -213 130.5 -351t353.5 -138z" />
<glyph unicode="&#xd4;" horiz-adv-x="1558" d="M731 1473q-29 0 -29 24q0 45 136 166q43 39 84 71.5t61.5 47t24.5 14.5q2 0 17 -14.5t41 -46t50 -68.5q76 -115 76 -151q0 -43 -35 -43q-20 0 -40.5 25.5t-61.5 100.5l-60 109l-106 -111q-117 -124 -158 -124zM743 -20q-262 0 -421.5 161.5t-159.5 409.5q0 336 219 565.5 t510 229.5q264 0 423 -161t159 -411q0 -334 -219.5 -564t-510.5 -230zM754 70q242 0 426 201.5t184 496.5q0 213 -130 351t-353 138q-240 0 -425.5 -202.5t-185.5 -495.5q0 -213 130.5 -351t353.5 -138z" />
<glyph unicode="&#xd5;" horiz-adv-x="1558" d="M743 -20q-262 0 -421.5 161.5t-159.5 409.5q0 336 219 565.5t510 229.5q264 0 423 -161t159 -411q0 -334 -219.5 -564t-510.5 -230zM754 70q242 0 426 201.5t184 496.5q0 213 -130 351t-353 138q-240 0 -425.5 -202.5t-185.5 -495.5q0 -213 130.5 -351t353.5 -138z M1044 1470q-78 0 -147 84q-53 59 -88 60q-55 0 -80 -86q-16 -47 -49 -47q-16 0 -35 14q18 94 63.5 148.5t112.5 54.5q74 0 148 -86q51 -59 88 -60q51 0 80 86q16 47 47 48q16 0 35 -15q-36 -201 -175 -201z" />
<glyph unicode="&#xd6;" horiz-adv-x="1558" d="M1116 1473q-76 0 -76 59q0 39 20.5 65.5t59.5 26.5q76 0 76 -59q0 -39 -20.5 -65.5t-59.5 -26.5zM791 1473q-76 0 -76 59q0 39 20.5 65.5t57.5 26.5q78 0 77 -59q0 -39 -21 -65.5t-58 -26.5zM743 -20q-262 0 -421.5 161.5t-159.5 409.5q0 336 219 565.5t510 229.5 q264 0 423 -161t159 -411q0 -334 -219.5 -564t-510.5 -230zM754 70q242 0 426 201.5t184 496.5q0 213 -130 351t-353 138q-240 0 -425.5 -202.5t-185.5 -495.5q0 -213 130.5 -351t353.5 -138z" />
<glyph unicode="&#xd7;" horiz-adv-x="1173" d="M807 201l-209 280l-326 -278q-25 -23 -50 -13.5t-28.5 34t19.5 48.5l330 283l-209 283q-18 25 -8 50t33.5 26t46.5 -23l206 -279l324 277q25 23 49.5 12.5t27.5 -35t-18 -47.5l-327 -280l211 -285q18 -25 8 -49.5t-33.5 -26.5t-46.5 23z" />
<glyph unicode="&#xd8;" horiz-adv-x="1558" d="M80 -59q-4 -4 -13.5 2t-18.5 19t-9 28q0 39 45 82l174 155q-96 145 -96 324q0 336 219 565.5t510 229.5q256 0 418 -162l207 188q4 2 14 -4t19.5 -19.5t9.5 -27.5q0 -37 -46 -80l-143 -131q102 -143 103 -336q0 -334 -219.5 -564t-510.5 -230q-260 0 -430 174zM338 295 l897 823q-127 139 -354 139q-240 0 -425.5 -202.5t-185.5 -495.5q0 -145 68 -264zM754 70q242 0 426 201.5t184 496.5q0 160 -76 276l-899 -825q129 -149 365 -149z" />
<glyph unicode="&#xd9;" horiz-adv-x="1361" d="M653 -20q-270 0 -395 150.5t-63 442.5l151 711q12 47 51 47h15q47 0 34 -53l-149 -713q-53 -246 43 -369.5t319 -123.5q340 0 428 417l170 795q8 47 52 47h12q47 0 35 -53l-170 -809q-107 -489 -533 -489zM985 1456q-6 -6 -43 7.5t-101.5 51t-125.5 89.5q-66 55 -66 94 q0 18 14.5 30.5t32.5 12.5q31 0 88 -51q59 -49 109.5 -105.5t73 -90.5t18.5 -38z" />
<glyph unicode="&#xda;" horiz-adv-x="1361" d="M741 1456q-4 4 30 39t99.5 88t135.5 98q55 41 94 41q18 0 30.5 -12t12.5 -29q0 -35 -86 -92q-74 -45 -151 -79.5t-120 -47t-45 -6.5zM653 -20q-270 0 -395 150.5t-63 442.5l151 711q12 47 51 47h15q47 0 34 -53l-149 -713q-53 -246 43 -369.5t319 -123.5q340 0 428 417 l170 795q8 47 52 47h12q47 0 35 -53l-170 -809q-107 -489 -533 -489z" />
<glyph unicode="&#xdb;" horiz-adv-x="1361" d="M668 1452q-29 0 -29 25q0 45 135 165q43 39 84 72t61.5 47.5t24.5 14.5q2 0 17.5 -14.5t41 -46.5t50.5 -68q76 -115 75 -152q0 -43 -34 -43q-20 0 -41 25.5t-62 101.5l-59 109l-107 -111q-116 -125 -157 -125zM653 -20q-270 0 -395 150.5t-63 442.5l151 711q12 47 51 47 h15q47 0 34 -53l-149 -713q-53 -246 43 -369.5t319 -123.5q340 0 428 417l170 795q8 47 52 47h12q47 0 35 -53l-170 -809q-107 -489 -533 -489z" />
<glyph unicode="&#xdc;" horiz-adv-x="1361" d="M1055 1452q-76 0 -76 59q0 39 20.5 66t59.5 27q76 0 76 -60q0 -39 -20.5 -65.5t-59.5 -26.5zM729 1452q-76 0 -76 59q0 39 20.5 66t57.5 27q78 0 78 -60q0 -39 -21.5 -65.5t-58.5 -26.5zM653 -20q-270 0 -395 150.5t-63 442.5l151 711q12 47 51 47h15q47 0 34 -53 l-149 -713q-53 -246 43 -369.5t319 -123.5q340 0 428 417l170 795q8 47 52 47h12q47 0 35 -53l-170 -809q-107 -489 -533 -489z" />
<glyph unicode="&#xdd;" d="M434 0l121 571l-334 754h111l289 -666l575 674q4 4 29.5 -6t32 -36.5t-43.5 -90.5l-559 -639l-118 -561h-103zM672 1450q-4 4 29.5 39t99 88t135.5 98q55 41 94 41q18 0 30.5 -12t12.5 -29q0 -35 -86 -92q-74 -45 -150.5 -80t-119.5 -47t-45 -6z" />
<glyph unicode="&#xde;" horiz-adv-x="1198" d="M139 -6q-49 0 -37 53l263 1237q10 47 51 47h14q47 0 37 -53l-47 -211h260q215 0 327.5 -89t112.5 -251q0 -213 -135 -334t-389 -121h-344l-49 -231q-8 -47 -51 -47h-13zM270 362h344q193 0 297.5 94.5t104.5 256.5q0 262 -342 262h-273z" />
<glyph unicode="&#xdf;" horiz-adv-x="1122" d="M592 -20q-162 0 -238 75q-45 47 -45 90q0 20 12.5 37t24.5 23t14 2q66 -141 238 -141q125 0 209 94t84 235q0 203 -275 291q-72 25 -71 68q0 55 39 82q199 0 293 63.5t94 198.5q0 96 -73 156.5t-191 60.5q-258 0 -334 -367l-201 -948h-98l205 956q47 223 159.5 335 t270.5 112q168 0 264 -82t96 -217q0 -158 -103.5 -248t-314.5 -98q156 -41 247 -133.5t91 -221.5q0 -178 -113.5 -300.5t-283.5 -122.5z" />
<glyph unicode="&#xe0;" horiz-adv-x="1228" d="M1016 -14q-74 0 -109 53t-12 154v4q-139 -217 -383 -217q-172 0 -286.5 111.5t-114.5 303.5q0 233 155.5 413.5t382.5 180.5q137 0 233.5 -68.5t133.5 -170.5l47 219h96l-166 -774q-16 -78 6.5 -108t83.5 -32l2 -6q0 -8 -3 -18.5t-9 -20.5t-20 -17t-37 -7zM524 66 q154 0 274 109.5t150 258.5l39 176q-27 133 -115 213t-229 80q-188 0 -310 -154.5t-122 -351.5q0 -152 89 -241.5t224 -89.5zM827 1120q-6 -6 -42.5 7.5t-101.5 51.5t-126 89q-66 55 -65 94q0 18 14 30.5t33 12.5q31 0 88 -51q59 -49 109 -105.5t72.5 -90.5t18.5 -38z" />
<glyph unicode="&#xe1;" horiz-adv-x="1228" d="M1016 -14q-74 0 -109 53t-12 154v4q-139 -217 -383 -217q-172 0 -286.5 111.5t-114.5 303.5q0 233 155.5 413.5t382.5 180.5q137 0 233.5 -68.5t133.5 -170.5l47 219h96l-166 -774q-16 -78 6.5 -108t83.5 -32l2 -6q0 -8 -3 -18.5t-9 -20.5t-20 -17t-37 -7zM524 66 q154 0 274 109.5t150 258.5l39 176q-27 133 -115 213t-229 80q-188 0 -310 -154.5t-122 -351.5q0 -152 89 -241.5t224 -89.5zM621 1120q-4 4 29.5 39t99 88t135.5 99q55 41 94 40q18 0 30.5 -12t12.5 -28q0 -35 -86 -93q-74 -45 -150.5 -79.5t-119.5 -47t-45 -6.5z" />
<glyph unicode="&#xe2;" horiz-adv-x="1228" d="M1016 -14q-74 0 -109 53t-12 154v4q-139 -217 -383 -217q-172 0 -286.5 111.5t-114.5 303.5q0 233 155.5 413.5t382.5 180.5q137 0 233.5 -68.5t133.5 -170.5l47 219h96l-166 -774q-16 -78 6.5 -108t83.5 -32l2 -6q0 -8 -3 -18.5t-9 -20.5t-20 -17t-37 -7zM524 66 q154 0 274 109.5t150 258.5l39 176q-27 133 -115 213t-229 80q-188 0 -310 -154.5t-122 -351.5q0 -152 89 -241.5t224 -89.5zM516 1116q-29 0 -29 25q0 45 136 166q43 39 84 71.5t61 47t25 14.5q2 0 17 -14.5t41 -46t50 -68.5q76 -115 76 -152q0 -43 -35 -43 q-20 0 -40.5 25.5t-61.5 101.5l-60 109l-106 -111q-117 -125 -158 -125z" />
<glyph unicode="&#xe3;" horiz-adv-x="1228" d="M1016 -14q-74 0 -109 53t-12 154v4q-139 -217 -383 -217q-172 0 -286.5 111.5t-114.5 303.5q0 233 155.5 413.5t382.5 180.5q137 0 233.5 -68.5t133.5 -170.5l47 219h96l-166 -774q-16 -78 6.5 -108t83.5 -32l2 -6q0 -8 -3 -18.5t-9 -20.5t-20 -17t-37 -7zM524 66 q154 0 274 109.5t150 258.5l39 176q-27 133 -115 213t-229 80q-188 0 -310 -154.5t-122 -351.5q0 -152 89 -241.5t224 -89.5zM858 1114q-78 0 -147 84q-53 59 -88 59q-55 0 -80 -86q-16 -47 -49 -47q-16 0 -35 15q18 94 63 148t113 54q74 0 147 -86q51 -59 88 -59 q51 0 80 86q16 47 47 47q16 0 35 -14q-35 -201 -174 -201z" />
<glyph unicode="&#xe4;" horiz-adv-x="1228" d="M1016 -14q-74 0 -109 53t-12 154v4q-139 -217 -383 -217q-172 0 -286.5 111.5t-114.5 303.5q0 233 155.5 413.5t382.5 180.5q137 0 233.5 -68.5t133.5 -170.5l47 219h96l-166 -774q-16 -78 6.5 -108t83.5 -32l2 -6q0 -8 -3 -18.5t-9 -20.5t-20 -17t-37 -7zM524 66 q154 0 274 109.5t150 258.5l39 176q-27 133 -115 213t-229 80q-188 0 -310 -154.5t-122 -351.5q0 -152 89 -241.5t224 -89.5zM901 1116q-76 0 -76 60q0 39 20.5 65.5t59.5 26.5q76 0 76 -60q0 -39 -20.5 -65.5t-59.5 -26.5zM575 1116q-76 0 -75 60q0 39 20.5 65.5t57.5 26.5 q78 0 77 -60q0 -39 -21.5 -65.5t-58.5 -26.5z" />
<glyph unicode="&#xe5;" horiz-adv-x="1228" d="M1016 -14q-74 0 -109 53t-12 154v4q-139 -217 -383 -217q-172 0 -286.5 111.5t-114.5 303.5q0 233 155.5 413.5t382.5 180.5q137 0 233.5 -68.5t133.5 -170.5l47 219h96l-166 -774q-16 -78 6.5 -108t83.5 -32l2 -6q0 -8 -3 -18.5t-9 -20.5t-20 -17t-37 -7zM524 66 q154 0 274 109.5t150 258.5l39 176q-27 133 -115 213t-229 80q-188 0 -310 -154.5t-122 -351.5q0 -152 89 -241.5t224 -89.5zM752 1114q-94 0 -150.5 55.5t-56.5 137.5q0 102 71.5 179t174.5 77q94 0 150 -55.5t56 -137.5q0 -102 -71.5 -179t-173.5 -77zM754 1184 q70 0 118 55t48 127q0 51 -36 90t-96 39q-70 0 -117.5 -55.5t-47.5 -126.5q0 -51 36 -90t95 -39z" />
<glyph unicode="&#xe6;" horiz-adv-x="1810" d="M401.5 -20q-153.5 0 -247 65.5t-93.5 175.5q0 121 72 193q147 150 684 149h31l4 19q31 152 -45 235.5t-238 83.5q-217 0 -323 -153q-2 -2 -12.5 4t-20.5 19t-10 30q0 33 45 76q113 113 332 112q158 0 256 -71.5t106 -206.5q76 131 199 204.5t276.5 73.5t242.5 -68.5 t89 -175.5q0 -113 -66.5 -179t-253 -96t-507.5 -7q-6 -43 -7 -86q0 -141 83 -227.5t233 -86.5q221 0 338 168q4 2 16 -2t24.5 -16t12.5 -29q0 -33 -47 -80q-123 -125 -348 -124q-160 0 -257.5 73.5t-123.5 200.5q-57 -129 -174 -201.5t-270.5 -72.5zM416 61q139 0 249.5 86 t141.5 228l24 110h-55q-256 -6 -381 -32.5t-184 -83.5q-49 -51 -49 -140q0 -76 70.5 -122t183.5 -46zM1413 903q-162 0 -291 -101.5t-180 -256.5q217 -10 354.5 -4t216 38.5t108.5 71.5t30 92q0 66 -62.5 113t-175.5 47z" />
<glyph unicode="&#xe7;" horiz-adv-x="1118" d="M559 -20q-195 0 -322.5 118.5t-127.5 323.5q0 225 156.5 396t381.5 171q207 0 324 -121q82 -82 82 -170q0 -27 -18.5 -43t-35 -16t-20.5 2q-16 113 -102 186.5t-228 73.5q-188 0 -314 -143.5t-126 -329.5q0 -164 99.5 -262t258.5 -98q213 0 328 192q2 2 16.5 -1 t27.5 -15.5t13 -30.5q0 -41 -63 -107q-131 -126 -330 -126zM322 -449q-8 -10 -30 5.5t-16 25.5l36 54l69 105l78 118l30 47q2 2 24 -1t43.5 -17.5t21.5 -37.5q0 -35 -35 -71z" />
<glyph unicode="&#xe8;" horiz-adv-x="1103" d="M520 -20q-199 0 -307.5 107.5t-108.5 283.5q0 258 174.5 438t430.5 180q156 0 245.5 -68.5t89.5 -175.5q0 -143 -125.5 -218.5t-437.5 -75.5q-125 0 -270 14q-6 -43 -6 -88q0 -143 83 -228.5t236 -85.5q221 0 340 168q2 2 14.5 -2t24.5 -16t12 -29q0 -35 -47 -80 q-123 -124 -348 -124zM702 903q-162 0 -290.5 -100.5t-180.5 -253.5q123 -16 242 -17q471 0 471 211q0 66 -63.5 113t-178.5 47zM813 1120q-6 -6 -43 7.5t-101.5 51.5t-125.5 89q-66 55 -66 94q0 18 14.5 30.5t32.5 12.5q31 0 88 -51q59 -49 109.5 -105.5t73 -90.5t18.5 -38 z" />
<glyph unicode="&#xe9;" horiz-adv-x="1103" d="M610 1120q-4 4 30 39t99.5 88t134.5 99q55 41 95 40q18 0 30.5 -12t12.5 -28q0 -35 -86 -93q-74 -45 -151 -79.5t-120 -47t-45 -6.5zM520 -20q-199 0 -307.5 107.5t-108.5 283.5q0 258 174.5 438t430.5 180q156 0 245.5 -68.5t89.5 -175.5q0 -143 -125.5 -218.5 t-437.5 -75.5q-125 0 -270 14q-6 -43 -6 -88q0 -143 83 -228.5t236 -85.5q221 0 340 168q2 2 14.5 -2t24.5 -16t12 -29q0 -35 -47 -80q-123 -124 -348 -124zM702 903q-162 0 -290.5 -100.5t-180.5 -253.5q123 -16 242 -17q471 0 471 211q0 66 -63.5 113t-178.5 47z" />
<glyph unicode="&#xea;" horiz-adv-x="1103" d="M520 -20q-199 0 -307.5 107.5t-108.5 283.5q0 258 174.5 438t430.5 180q156 0 245.5 -68.5t89.5 -175.5q0 -143 -125.5 -218.5t-437.5 -75.5q-125 0 -270 14q-6 -43 -6 -88q0 -143 83 -228.5t236 -85.5q221 0 340 168q2 2 14.5 -2t24.5 -16t12 -29q0 -35 -47 -80 q-123 -124 -348 -124zM702 903q-162 0 -290.5 -100.5t-180.5 -253.5q123 -16 242 -17q471 0 471 211q0 66 -63.5 113t-178.5 47zM526 1116q-29 0 -28 25q0 45 135 166q43 39 84 71.5t61.5 47t24.5 14.5q2 0 17.5 -14.5t41 -46t49.5 -68.5q76 -115 76 -152q0 -43 -35 -43 q-20 0 -40.5 25.5t-61.5 101.5l-59 109l-107 -111q-117 -125 -158 -125z" />
<glyph unicode="&#xeb;" horiz-adv-x="1103" d="M520 -20q-199 0 -307.5 107.5t-108.5 283.5q0 258 174.5 438t430.5 180q156 0 245.5 -68.5t89.5 -175.5q0 -143 -125.5 -218.5t-437.5 -75.5q-125 0 -270 14q-6 -43 -6 -88q0 -143 83 -228.5t236 -85.5q221 0 340 168q2 2 14.5 -2t24.5 -16t12 -29q0 -35 -47 -80 q-123 -124 -348 -124zM702 903q-162 0 -290.5 -100.5t-180.5 -253.5q123 -16 242 -17q471 0 471 211q0 66 -63.5 113t-178.5 47zM909 1116q-76 0 -75 60q0 39 20 65.5t59 26.5q76 0 76 -60q0 -39 -20.5 -65.5t-59.5 -26.5zM584 1116q-76 0 -76 60q0 39 20.5 65.5t57.5 26.5 q78 0 78 -60q0 -39 -21.5 -65.5t-58.5 -26.5z" />
<glyph unicode="&#xec;" horiz-adv-x="471" d="M250 -14q-78 0 -113 52t-12 155l166 776h96l-164 -774q-16 -80 7.5 -110t88.5 -30v-6q2 -8 -1 -18.5t-9 -20.5t-21 -17t-38 -7zM453 1120q-6 -6 -43 7.5t-101.5 51.5t-126.5 89q-66 55 -65 94q0 18 14 30.5t33 12.5q31 0 88 -51q59 -49 109.5 -105.5t73 -90.5t18.5 -38z " />
<glyph unicode="&#xed;" horiz-adv-x="471" d="M254 1120q-4 4 29.5 39t99.5 88t135 99q55 41 94 40q18 0 30.5 -12t12.5 -28q0 -35 -86 -93q-74 -45 -150.5 -79.5t-119.5 -47t-45 -6.5zM250 -14q-78 0 -113 52t-12 155l166 776h96l-164 -774q-16 -80 7.5 -110t88.5 -30v-6q2 -8 -1 -18.5t-9 -20.5t-21 -17t-38 -7z" />
<glyph unicode="&#xee;" horiz-adv-x="471" d="M162 1116q-29 0 -29 25q0 45 135 166q43 39 84 71.5t61.5 47t24.5 14.5q2 0 17.5 -14.5t41 -46t50.5 -68.5q76 -115 76 -152q0 -43 -35 -43q-20 0 -41 25.5t-62 101.5l-59 109l-107 -111q-116 -125 -157 -125zM250 -14q-78 0 -113 52t-12 155l166 776h96l-164 -774 q-16 -80 7.5 -110t88.5 -30v-6q2 -8 -1 -18.5t-9 -20.5t-21 -17t-38 -7z" />
<glyph unicode="&#xef;" horiz-adv-x="471" d="M547 1116q-76 0 -76 60q0 39 20.5 65.5t59.5 26.5q76 0 76 -60q0 -39 -20.5 -65.5t-59.5 -26.5zM221 1116q-76 0 -76 60q0 39 20.5 65.5t57.5 26.5q78 0 78 -60q0 -39 -21.5 -65.5t-58.5 -26.5zM250 -14q-78 0 -113 52t-12 155l166 776h96l-164 -774q-16 -80 7.5 -110 t88.5 -30v-6q2 -8 -1 -18.5t-9 -20.5t-21 -17t-38 -7z" />
<glyph unicode="&#xf0;" horiz-adv-x="1171" d="M528 -20q-195 0 -316.5 102t-121.5 283q0 209 139.5 353t364.5 144q137 0 245.5 -67.5t151.5 -153.5q2 23 2 68q0 276 -200 456l-320 -178q-4 -2 -10 3t-12.5 17.5t-6.5 26.5q0 35 58 66l217 117q-133 90 -326 106q-2 2 -3 20.5t20.5 39t56.5 20.5q68 0 164 -35t182 -102 l260 141q4 2 10.5 -3t12.5 -16.5t6 -25.5q0 -37 -58 -68l-163 -86q209 -209 209 -508q0 -121 -33 -242.5t-97.5 -231t-176.5 -178t-255 -68.5zM526 63q186 0 298 133.5t147 340.5q-29 88 -136.5 163.5t-242.5 75.5q-195 0 -299.5 -115.5t-104.5 -298.5q0 -137 95.5 -218 t242.5 -81z" />
<glyph unicode="&#xf1;" d="M946 -14q-55 0 -89 35.5t-34 99t49 250.5q53 199 54 280q0 115 -64.5 180.5t-179.5 65.5q-227 0 -375 -256l-137 -641h-98l209 969q0 6 20 6q74 0 53 -107l-20 -92q135 213 360 213q152 0 242 -89t90 -232q0 -84 -57 -310q-47 -174 -47 -223q0 -76 90 -82q0 -2 1 -17.5 t-16.5 -32.5t-50.5 -17zM850 1114q-78 0 -148 84q-53 59 -88 59q-55 0 -79 -86q-16 -47 -50 -47q-16 0 -34 15q18 94 63 148t113 54q74 0 147 -86q51 -59 88 -59q51 0 80 86q16 47 47 47q16 0 35 -14q-35 -201 -174 -201z" />
<glyph unicode="&#xf2;" horiz-adv-x="1202" d="M553 -20q-190 0 -316 124.5t-126 319.5q0 231 157.5 398t382.5 167q188 0 315.5 -126t127.5 -318q0 -231 -158 -398t-383 -167zM559 66q178 0 306 140t128 337q0 156 -98 258t-250 102q-178 0 -307 -140t-129 -337q0 -154 99 -257t251 -103zM786 1120q-6 -6 -42.5 7.5 t-101 51.5t-126.5 89q-66 55 -65 94q0 18 14 30.5t33 12.5q31 0 88 -51q59 -49 109 -105.5t72.5 -90.5t18.5 -38z" />
<glyph unicode="&#xf3;" horiz-adv-x="1202" d="M588 1120q-4 4 29.5 39t99 88t135.5 99q55 41 94 40q18 0 30.5 -12t12.5 -28q0 -35 -86 -93q-74 -45 -150.5 -79.5t-119.5 -47t-45 -6.5zM553 -20q-190 0 -316 124.5t-126 319.5q0 231 157.5 398t382.5 167q188 0 315.5 -126t127.5 -318q0 -231 -158 -398t-383 -167z M559 66q178 0 306 140t128 337q0 156 -98 258t-250 102q-178 0 -307 -140t-129 -337q0 -154 99 -257t251 -103z" />
<glyph unicode="&#xf4;" horiz-adv-x="1202" d="M492 1116q-29 0 -29 25q0 45 135 166q43 39 84 71.5t61.5 47t24.5 14.5q2 0 17.5 -14.5t41 -46t50.5 -68.5q76 -115 75 -152q0 -43 -34 -43q-20 0 -41 25.5t-62 101.5l-59 109l-107 -111q-116 -125 -157 -125zM553 -20q-190 0 -316 124.5t-126 319.5q0 231 157.5 398 t382.5 167q188 0 315.5 -126t127.5 -318q0 -231 -158 -398t-383 -167zM559 66q178 0 306 140t128 337q0 156 -98 258t-250 102q-178 0 -307 -140t-129 -337q0 -154 99 -257t251 -103z" />
<glyph unicode="&#xf5;" horiz-adv-x="1202" d="M553 -20q-190 0 -316 124.5t-126 319.5q0 231 157.5 398t382.5 167q188 0 315.5 -126t127.5 -318q0 -231 -158 -398t-383 -167zM559 66q178 0 306 140t128 337q0 156 -98 258t-250 102q-178 0 -307 -140t-129 -337q0 -154 99 -257t251 -103zM834 1114q-78 0 -148 84 q-53 59 -88 59q-55 0 -80 -86q-16 -47 -49 -47q-16 0 -35 15q18 94 63.5 148t112.5 54q74 0 148 -86q51 -59 88 -59q51 0 80 86q16 47 47 47q16 0 35 -14q-35 -201 -174 -201z" />
<glyph unicode="&#xf6;" horiz-adv-x="1202" d="M877 1116q-76 0 -76 60q0 39 20.5 65.5t59.5 26.5q76 0 75 -60q0 -39 -20 -65.5t-59 -26.5zM551 1116q-76 0 -76 60q0 39 20.5 65.5t57.5 26.5q78 0 78 -60q0 -39 -21.5 -65.5t-58.5 -26.5zM553 -20q-190 0 -316 124.5t-126 319.5q0 231 157.5 398t382.5 167 q188 0 315.5 -126t127.5 -318q0 -231 -158 -398t-383 -167zM559 66q178 0 306 140t128 337q0 156 -98 258t-250 102q-178 0 -307 -140t-129 -337q0 -154 99 -257t251 -103z" />
<glyph unicode="&#xf7;" horiz-adv-x="1298" d="M721 768q-78 0 -78 55.5t27 81.5q20 20 57 21q78 0 78 -55.5t-27 -82.5q-20 -20 -57 -20zM592 166q-76 0 -76 55q0 57 27 82q18 20 57 21q76 0 76 -54q0 -57 -27 -84q-20 -20 -57 -20zM268 500q-51 0 -39 41l2 10q12 41 58 41h764q27 0 35 -9.5t4 -31.5l-5 -10 q-10 -41 -55 -41h-764z" />
<glyph unicode="&#xf8;" horiz-adv-x="1202" d="M68 -45q-4 -4 -14.5 2t-19.5 18.5t-9 26.5q0 31 43 66l116 104q-74 109 -73 252q0 231 157.5 398t382.5 167q184 0 314 -125l161 148q4 2 13.5 -4.5t18.5 -18.5t9 -24q0 -29 -41 -68l-108 -96q76 -113 76 -256q0 -231 -158 -398t-383 -167q-188 0 -315 126zM260 233 l635 566q-98 104 -250 104q-178 0 -307 -140t-129 -337q0 -101 51 -193zM559 66q178 0 306 140t128 337q0 109 -51 194l-637 -565q100 -106 254 -106z" />
<glyph unicode="&#xf9;" d="M948 -14q-72 0 -105.5 50t-15.5 148q-123 -205 -348 -204q-186 0 -276 121.5t-47 332.5l112 535h99l-115 -541q-37 -166 31.5 -261t210.5 -95q117 0 203.5 60.5t158.5 184.5l137 652h99l-164 -774q-18 -78 4 -108t84 -32v-6q2 -8 -1 -18.5t-9.5 -20.5t-20.5 -17t-37 -7z M774 1114q-6 -6 -43 7.5t-101.5 51t-125.5 89.5q-66 55 -66 94q0 18 14.5 30.5t32.5 12.5q31 0 88 -51q59 -49 109.5 -105.5t73 -90.5t18.5 -38z" />
<glyph unicode="&#xfa;" d="M948 -14q-72 0 -105.5 50t-15.5 148q-123 -205 -348 -204q-186 0 -276 121.5t-47 332.5l112 535h99l-115 -541q-37 -166 31.5 -261t210.5 -95q117 0 203.5 60.5t158.5 184.5l137 652h99l-164 -774q-18 -78 4 -108t84 -32v-6q2 -8 -1 -18.5t-9.5 -20.5t-20.5 -17t-37 -7z M584 1114q-4 4 29.5 39t99 88t135.5 98q55 41 94 41q18 0 30.5 -12t12.5 -29q0 -35 -86 -92q-74 -45 -150.5 -79.5t-119.5 -47t-45 -6.5z" />
<glyph unicode="&#xfb;" d="M948 -14q-72 0 -105.5 50t-15.5 148q-123 -205 -348 -204q-186 0 -276 121.5t-47 332.5l112 535h99l-115 -541q-37 -166 31.5 -261t210.5 -95q117 0 203.5 60.5t158.5 184.5l137 652h99l-164 -774q-18 -78 4 -108t84 -32v-6q2 -8 -1 -18.5t-9.5 -20.5t-20.5 -17t-37 -7z M492 1110q-29 0 -29 25q0 45 135 165q43 39 84 72t61.5 47.5t24.5 14.5q2 0 17.5 -14.5t41 -46.5t50.5 -68q76 -113 75 -152q0 -43 -34 -43q-20 0 -41 25.5t-62 101.5l-59 109l-107 -111q-116 -125 -157 -125z" />
<glyph unicode="&#xfc;" d="M948 -14q-72 0 -105.5 50t-15.5 148q-123 -205 -348 -204q-186 0 -276 121.5t-47 332.5l112 535h99l-115 -541q-37 -166 31.5 -261t210.5 -95q117 0 203.5 60.5t158.5 184.5l137 652h99l-164 -774q-18 -78 4 -108t84 -32v-6q2 -8 -1 -18.5t-9.5 -20.5t-20.5 -17t-37 -7z M877 1110q-76 0 -76 59q0 39 20.5 66t59.5 27q76 0 75 -60q0 -39 -20 -65.5t-59 -26.5zM551 1110q-76 0 -76 59q0 39 20.5 66t57.5 27q78 0 78 -60q0 -39 -21.5 -65.5t-58.5 -26.5z" />
<glyph unicode="&#xfd;" horiz-adv-x="997" d="M6 -410q-94 0 -137 48q-18 18 -19 43q0 14 9.5 27t18.5 19.5t13 4.5q41 -51 109 -51q59 0 121.5 52t161.5 197l82 123q-47 6 -54 66l-80 583q-14 106 -50 151.5t-101 43.5q-2 0 -2 8t2 20.5t9 24t24.5 19.5t42.5 8q53 0 86 -37q66 -66 86 -246l73 -588l539 863 q10 0 58.5 -1t45.5 -3l-667 -1055q-117 -186 -196 -253t-175 -67zM522 1094q-4 4 30 38.5t99.5 88t134.5 98.5q55 41 95 41q18 0 30.5 -12.5t12.5 -28.5q0 -35 -86 -92q-74 -45 -151 -80t-120 -47t-45 -6z" />
<glyph unicode="&#xfe;" horiz-adv-x="1224" d="M39 -401q-51 0 -41 47l360 1695q8 47 45 48h13q49 0 41 -48l-121 -559q143 207 373 207q172 0 289.5 -114.5t117.5 -315.5q0 -229 -149.5 -404t-372.5 -175q-141 0 -241.5 73.5t-133.5 175.5l-123 -583q-10 -47 -45 -47h-12zM600 66q186 0 302 148t116 345q0 156 -92 250 t-228 94q-127 0 -230 -73.5t-161 -190.5l-43 -193q-27 -145 66.5 -262.5t269.5 -117.5z" />
<glyph unicode="&#xff;" horiz-adv-x="997" d="M6 -410q-94 0 -137 48q-18 18 -19 43q0 14 9.5 27t18.5 19.5t13 4.5q41 -51 109 -51q59 0 121.5 52t161.5 197l82 123q-47 6 -54 66l-80 583q-14 106 -50 151.5t-101 43.5q-2 0 -2 8t2 20.5t9 24t24.5 19.5t42.5 8q53 0 86 -37q66 -66 86 -246l73 -588l539 863 q10 0 58.5 -1t45.5 -3l-667 -1055q-117 -186 -196 -253t-175 -67zM782 1116q-76 0 -75 60q0 39 20.5 65.5t58.5 26.5q76 0 76 -60q0 -39 -20.5 -65.5t-59.5 -26.5zM457 1116q-76 0 -76 60q0 39 20.5 65.5t57.5 26.5q78 0 78 -60q0 -39 -21.5 -65.5t-58.5 -26.5z" />
<glyph unicode="&#x152;" horiz-adv-x="2138" d="M739 -16q-262 0 -419.5 159.5t-157.5 409.5q0 334 218 562t505 228q78 0 149 -18h1125q-2 -8 -5 -25l-12 -57l-2 -10h-921q115 -68 179 -188.5t64 -270.5v-49h426q-2 -8 -4 -25l-12 -55l-2 -10h-420q-29 -178 -131 -321.5t-246 -219.5h850q-2 -8 -4 -26l-12 -58l-2 -10 h-1031q-72 -16 -135 -16zM750 72q240 0 422 201.5t182 494.5q0 211 -128 349t-352 138q-240 0 -422 -201.5t-182 -494.5q0 -211 129.5 -349t350.5 -138z" />
<glyph unicode="&#x153;" horiz-adv-x="1966" d="M545 -20q-186 0 -310 121.5t-124 318.5q0 236 153.5 402.5t380.5 166.5q156 0 269.5 -90t144.5 -242q70 150 209 241t305 91q154 0 243 -68.5t89 -175.5q0 -141 -122 -217.5t-419 -76.5q-156 0 -287 12q-6 -43 -6 -86q0 -141 82 -227.5t233 -86.5q221 0 338 168 q2 2 14.5 -2t25 -16t12.5 -29q0 -35 -45 -80q-123 -125 -349 -124q-156 0 -255 77.5t-126 208.5q-66 -131 -187.5 -208.5t-268.5 -77.5zM555 66q178 0 304 141t126 340q0 154 -98.5 255t-243.5 101q-180 0 -307 -140t-127 -341q0 -154 98 -255t248 -101zM1567 903 q-160 0 -288 -100.5t-179 -253.5q135 -14 254 -14q453 0 452 208q0 66 -63 113t-176 47z" />
<glyph unicode="&#x178;" d="M434 0l121 571l-334 754h111l289 -666l575 674q4 4 29.5 -6t32 -36.5t-43.5 -90.5l-559 -639l-118 -561h-103zM928 1452q-76 0 -76 59q0 39 20.5 66t59.5 27q76 0 76 -60q0 -39 -20.5 -65.5t-59.5 -26.5zM602 1452q-76 0 -76 59q0 39 20.5 66t57.5 27q78 0 78 -60 q0 -39 -21.5 -65.5t-58.5 -26.5z" />
<glyph unicode="&#x2c6;" horiz-adv-x="1093" d="M473 1116q-29 0 -29 25q0 45 136 166q43 39 84 71.5t61 47t25 14.5q2 0 17 -14.5t41 -46t50 -68.5q76 -115 76 -152q0 -43 -35 -43q-20 0 -40.5 25.5t-61.5 101.5l-60 109l-106 -111q-117 -125 -158 -125z" />
<glyph unicode="&#x2dc;" horiz-adv-x="1091" d="M815 1114q-78 0 -147 84q-53 59 -88 59q-55 0 -80 -86q-16 -47 -49 -47q-16 0 -35 15q18 94 63 148t113 54q74 0 147 -86q51 -59 88 -59q51 0 80 86q16 47 47 47q16 0 35 -14q-35 -201 -174 -201z" />
<glyph unicode="&#x2000;" horiz-adv-x="897" />
<glyph unicode="&#x2001;" horiz-adv-x="1796" />
<glyph unicode="&#x2002;" horiz-adv-x="897" />
<glyph unicode="&#x2003;" horiz-adv-x="1796" />
<glyph unicode="&#x2004;" horiz-adv-x="598" />
<glyph unicode="&#x2005;" horiz-adv-x="448" />
<glyph unicode="&#x2006;" horiz-adv-x="299" />
<glyph unicode="&#x2007;" horiz-adv-x="299" />
<glyph unicode="&#x2008;" horiz-adv-x="223" />
<glyph unicode="&#x2009;" horiz-adv-x="358" />
<glyph unicode="&#x200a;" horiz-adv-x="98" />
<glyph unicode="&#x2010;" horiz-adv-x="788" d="M123 463q2 10 6 26l10 52l2 12h535q-2 -8 -4 -25l-13 -53l-2 -12h-534z" />
<glyph unicode="&#x2011;" horiz-adv-x="788" d="M123 463q2 10 6 26l10 52l2 12h535q-2 -8 -4 -25l-13 -53l-2 -12h-534z" />
<glyph unicode="&#x2012;" horiz-adv-x="788" d="M123 463q2 10 6 26l10 52l2 12h535q-2 -8 -4 -25l-13 -53l-2 -12h-534z" />
<glyph unicode="&#x2013;" horiz-adv-x="1095" d="M170 465q-45 0 -45 24q0 33 18 52q12 12 37 12h758q45 0 45 -25q0 -35 -18 -53q-10 -10 -37 -10h-758z" />
<glyph unicode="&#x2014;" horiz-adv-x="1431" d="M170 465q-45 0 -45 24q0 33 18 52q12 12 37 12h1094q43 0 43 -25q0 -37 -19 -53q-8 -10 -36 -10h-1092z" />
<glyph unicode="&#x2018;" horiz-adv-x="462" d="M315 897q-6 -2 -26.5 -1t-44 15.5t-23.5 36.5q0 31 31 72l242 332q8 8 30.5 -6.5t16.5 -26.5z" />
<glyph unicode="&#x2019;" horiz-adv-x="462" d="M240 893q-8 -8 -32 6t-15 27l225 422q6 2 26.5 1t43 -15.5t22.5 -37.5q0 -33 -29 -71z" />
<glyph unicode="&#x201a;" horiz-adv-x="460" d="M-47 -295q-8 -8 -31.5 6.5t-15.5 26.5l225 422q6 2 26.5 1t43 -15.5t22.5 -36.5q0 -33 -28 -70z" />
<glyph unicode="&#x201c;" horiz-adv-x="745" d="M315 899q-6 -2 -26.5 -1t-44 15.5t-23.5 36.5q0 31 31 72l242 332q8 8 30.5 -6.5t16.5 -26.5zM598 897q-4 -2 -24.5 -1t-44 15.5t-23.5 36.5q0 31 31 72l241 332q6 8 29.5 -6.5t15.5 -26.5z" />
<glyph unicode="&#x201d;" horiz-adv-x="745" d="M240 893q-8 -8 -32 6t-15 27l225 422q6 2 26.5 1t43 -15.5t22.5 -37.5q0 -33 -29 -71zM522 891q-8 -8 -30.5 6t-14.5 27l38 70l73 136l80 154l32 62q6 2 27 1t44.5 -15.5t23.5 -37.5q0 -31 -31 -71z" />
<glyph unicode="&#x201e;" horiz-adv-x="745" d="M-47 -295q-8 -8 -31.5 6.5t-15.5 26.5l225 422q6 2 26.5 1t43 -15.5t22.5 -36.5q0 -33 -28 -70zM236 -297q-6 -8 -30 6.5t-16 26.5l226 422q4 2 24.5 1t44 -15.5t23.5 -37.5q0 -31 -31 -69z" />
<glyph unicode="&#x2022;" horiz-adv-x="684" d="M348 328q-76 0 -127 52t-51 128t51 128t127 52q74 0 125 -52t51 -128t-51 -128t-125 -52z" />
<glyph unicode="&#x2026;" horiz-adv-x="1245" d="M922 -10q-76 0 -76 55q0 57 26 82q20 20 58 20q76 0 76 -53q0 -57 -25 -84q-20 -20 -59 -20zM530 -10q-76 0 -75 55q0 57 26 82q20 20 58 20q76 0 75 -53q0 -57 -26 -84q-19 -20 -58 -20zM139 -10q-76 0 -76 55q0 57 25 82q20 20 59 20q76 0 76 -53q0 -57 -26 -84 q-21 -20 -58 -20z" />
<glyph unicode="&#x202f;" horiz-adv-x="358" />
<glyph unicode="&#x2039;" horiz-adv-x="688" d="M449 170q-49 0 -179 143q-145 164 -141 193q2 6 26.5 29.5t76.5 65.5l114 87q184 133 234 133q35 0 34 -37q0 -49 -215 -184l-180 -113q33 -27 135 -120q84 -80 109.5 -110t25.5 -52q0 -14 -11 -24.5t-29 -10.5z" />
<glyph unicode="&#x203a;" horiz-adv-x="688" d="M117 170q-35 0 -35 37q0 47 213 184l180 113l-133 121q-86 82 -111.5 110.5t-25.5 50.5q0 14 12 24.5t29 10.5q51 0 178 -143q147 -164 143 -195q-2 -4 -27.5 -27.5t-77.5 -66.5t-114 -86q-182 -133 -231 -133z" />
<glyph unicode="&#x205f;" horiz-adv-x="448" />
<glyph unicode="&#x20ac;" horiz-adv-x="1343" d="M225 786q-45 0 -45 25q0 33 19 51q12 12 39 12h157q76 201 187 312q160 160 383 160q188 0 299 -115q72 -68 71 -158q0 -27 -17.5 -44t-31.5 -18t-18 1q-29 117 -109 182.5t-205 65.5q-174 0 -303 -130q-98 -98 -155 -256h475q43 0 43 -24q0 -39 -19 -53q-8 -10 -37 -11 h-491q-35 -123 -45 -237h479q43 0 43 -25q0 -37 -18 -51q-8 -10 -37 -10h-469q4 -178 99 -286.5t253 -108.5q217 0 344 204q2 2 14.5 -2t23.5 -17t11 -30q0 -45 -67 -112q-55 -57 -142.5 -94t-179.5 -37q-217 0 -335.5 128t-123.5 355h-161q-45 0 -45 22q0 35 18 54 q10 10 39 10h154q10 117 45 237h-142z" />
<glyph unicode="&#x2122;" horiz-adv-x="1406" d="M852 700q-33 0 -33 39v547q0 45 41 45h37q31 0 47 -35l164 -344l162 344q16 35 47 35h35q41 0 41 -45v-547q0 -39 -35 -39h-10q-33 0 -33 39v484l-164 -353q-10 -23 -45 -22q-33 0 -43 22l-166 351v-482q0 -39 -31 -39h-14zM446 700q-35 0 -34 39v514h-185q-37 0 -37 33 v6q0 35 37 35h451q37 0 37 -35v-6q0 -33 -37 -33h-184v-514q0 -39 -37 -39h-11z" />
<glyph unicode="&#xe000;" horiz-adv-x="985" d="M0 985h985v-985h-985v985z" />
<glyph unicode="&#xfb01;" horiz-adv-x="1107" d="M162 0l186 881h-198q0 8 4 24l10 53l2 11h201l26 118q66 315 301 316q109 0 164 -55q25 -25 25 -56q0 -16 -9.5 -29.5t-18.5 -18.5t-11 -3q-18 33 -61.5 54.5t-94.5 21.5q-152 0 -203 -244l-24 -104h258q-2 -8 -4 -25l-13 -51l-2 -12h-256l-186 -881h-96zM887 -14 q-78 0 -113 51t-12 156l166 776h98l-166 -774q-16 -80 7.5 -110t90.5 -30q4 0 1 -17.5t-20 -34.5t-52 -17zM1049 1231q-72 0 -72 53q0 35 19.5 58.5t54.5 23.5q70 0 69 -53q0 -35 -19 -58.5t-52 -23.5z" />
<glyph unicode="&#xfb02;" horiz-adv-x="1107" d="M162 0l186 881h-198q0 8 4 24l10 53l2 11h201l26 118q66 315 301 316q109 0 164 -55q25 -25 25 -56q0 -16 -9.5 -29.5t-18.5 -18.5t-11 -3q-18 33 -61.5 54.5t-94.5 21.5q-152 0 -203 -244l-24 -104h258q-2 -8 -4 -25l-13 -51l-2 -12h-256l-186 -881h-96zM887 -14 q-78 0 -113 51t-12 156l254 1187h98l-254 -1185q-16 -80 7.5 -110t90.5 -30q4 0 1 -17.5t-20 -34.5t-52 -17z" />
<glyph unicode="&#xfb03;" horiz-adv-x="1884" d="M1823 1231q-70 0 -70 53q0 35 19.5 58.5t52.5 23.5q70 0 69 -53q0 -35 -19 -58.5t-52 -23.5zM1663 -14q-78 0 -113 52q-21 32 -21 82q0 32 9 73l166 776h96l-164 -774q-7 -33 -6 -58q0 -35 13 -52q24 -30 89 -30v-6q2 -8 -1 -18.5t-9 -20.5t-21 -17t-38 -7zM965 0h-96 l186 881h-198l16 88h201l26 118q66 315 301 316q109 0 164 -55q25 -25 25 -56q0 -16 -9.5 -29.5t-18.5 -18.5t-11 -3q-18 33 -61.5 54.5t-94.5 21.5q-152 0 -203 -244l-24 -104h258l-19 -88h-256zM258 0h-96l186 881h-198l16 88h201l26 118q66 315 301 316q109 0 164 -55 q25 -25 25 -56q0 -16 -9.5 -29.5t-18.5 -18.5t-11 -3q-18 33 -61.5 54.5t-94.5 21.5q-152 0 -203 -244l-24 -104h258l-19 -88h-256z" />
<glyph unicode="&#xfb04;" horiz-adv-x="1884" d="M1663 -14q-78 0 -113 52q-21 32 -21 82q0 32 9 73l254 1187h96l-252 -1185q-7 -33 -6 -58q0 -35 13 -52q24 -30 89 -30v-6q2 -8 -1 -18.5t-9 -20.5t-21 -17t-38 -7zM965 0h-96l186 881h-198l16 88h201l26 118q66 315 301 316q109 0 164 -55q25 -25 25 -56 q0 -16 -9.5 -29.5t-18.5 -18.5t-11 -3q-18 33 -61.5 54.5t-94.5 21.5q-152 0 -203 -244l-24 -104h258l-19 -88h-256zM258 0h-96l186 881h-198l16 88h201l26 118q66 315 301 316q109 0 164 -55q25 -25 25 -56q0 -16 -9.5 -29.5t-18.5 -18.5t-11 -3q-18 33 -61.5 54.5 t-94.5 21.5q-152 0 -203 -244l-24 -104h258l-19 -88h-256z" />
</font>
</defs>
</svg>
