<?xml version="1.0" standalone="no"?>
<!DOCTYPE svg PUBLIC "-//W3C//DTD SVG 1.1//EN" "http://www.w3.org/Graphics/SVG/1.1/DTD/svg11.dtd" >
<svg xmlns="http://www.w3.org/2000/svg">
<metadata>
This is a custom SVG webfont generated by Font Squirrel.
Copyright   : Generated in 2010 by FontLab Studio Copyright info pending
</metadata>
<defs>
<font id="webfont3k8nZrV0" horiz-adv-x="1566" >
<font-face units-per-em="2048" ascent="1434" descent="-614" />
<missing-glyph horiz-adv-x="360" />
<glyph unicode=" "  horiz-adv-x="360" />
<glyph unicode="&#x09;" horiz-adv-x="360" />
<glyph unicode="&#xa0;" horiz-adv-x="360" />
<glyph unicode="!" horiz-adv-x="536" d="M262 354q-23 0 -22 41l-33 930h123l-31 -930q-4 -41 -25 -41h-12zM260 -10q-70 0 -70 71v15q0 72 70 71h16q70 0 70 -71v-15q0 -72 -70 -71h-16z" />
<glyph unicode="&#x22;" horiz-adv-x="741" d="M223 840q-20 0 -26 41l-27 444h123l-29 -444q-4 -41 -24 -41h-17zM500 840q-20 0 -25 41l-29 444h123l-28 -444q-4 -41 -25 -41h-16z" />
<glyph unicode="#" horiz-adv-x="1378" d="M287 -6q-31 0 -44.5 27.5t5.5 95.5l80 260h-258v88h282l123 395h-254v88h281l114 379q4 4 21 4q31 0 44 -27.5t-5 -95.5l-80 -260h360l115 379q4 4 21 4q31 0 44 -27.5t-6 -95.5l-79 -260h258v-88h-285l-121 -395h254v-88h-280l-115 -379q-4 -4 -21 -4q-31 0 -44 27.5 t5 95.5l80 260h-360l-115 -379q-4 -4 -20 -4zM446 463h365l121 399h-365z" />
<glyph unicode="$" horiz-adv-x="1157" d="M573 -197q-41 0 -41 2v179q-229 16 -354 141q-63 63 -63 121q0 18 14 34.5t28.5 22.5t18.5 4q37 -90 129 -154.5t234 -76.5v557q-88 23 -147.5 45t-121 62t-92.5 102.5t-31 146.5q0 143 111 241.5t279 110.5v172q0 2 41 3h10q39 0 39 -3v-170q215 -14 325 -129 q57 -53 58 -104q0 -41 -49 -59q-10 -4 -13 -2q-37 80 -121 136t-204 66v-534q92 -23 154.5 -45.5t129 -64.5t100 -107.5t33.5 -155.5q0 -150 -116.5 -251t-298.5 -111v-177q0 -2 -41 -2h-11zM543 737v512q-129 -8 -211 -79.5t-82 -180t73 -162t220 -90.5zM618 76 q143 4 232.5 77.5t89.5 186.5q0 119 -83 176t-239 96v-536z" />
<glyph unicode="%" horiz-adv-x="1511" d="M410 733q-125 0 -210 87t-85 210v14q0 123 86 211t209 88q125 0 208.5 -86t83.5 -208v-17q0 -123 -84.5 -211t-207.5 -88zM242 -12q-4 -2 -15.5 1t-22.5 14t-11 28q0 33 45 84l1026 1231q4 2 15 -1.5t22.5 -14.5t11.5 -27q0 -31 -47 -84zM1102 -10q-123 0 -208 87 t-85 210v14q0 123 86 211t209 88t208 -86t85 -209v-16q0 -123 -86 -211t-209 -88zM410 813q88 0 146 61.5t58 153.5v21q0 92 -59 154.5t-147.5 62.5t-145.5 -62.5t-57 -154.5v-21q0 -92 58.5 -153.5t146.5 -61.5zM1104 70q88 0 145.5 61.5t57.5 153.5v20q0 92 -58.5 154.5 t-146.5 62.5t-145.5 -62.5t-57.5 -154.5v-20q0 -92 58.5 -153.5t146.5 -61.5z" />
<glyph unicode="&#x26;" horiz-adv-x="1374" d="M532 -20q-203 0 -325.5 103t-122.5 279q0 293 362 396q-127 141 -127 280q0 129 90.5 218.5t231.5 89.5q133 0 220 -85t87 -206q0 -238 -340 -328l391 -367q104 176 156 433h100q-55 -291 -188 -492l289 -264q4 -4 0 -14.5t-18.5 -19.5t-37.5 -9q-41 0 -75 33l-213 196 q-201 -243 -480 -243zM539 68q244 0 409 217l-444 415q-147 -45 -230.5 -122.5t-83.5 -210.5q0 -137 95.5 -218t253.5 -81zM547 786q154 39 230.5 99.5t76.5 167.5q0 88 -59.5 148.5t-155.5 60.5q-102 0 -161.5 -63.5t-59.5 -158.5q0 -131 129 -254z" />
<glyph unicode="'" horiz-adv-x="462" d="M223 840q-20 0 -26 41l-27 444h123l-29 -444q-4 -41 -24 -41h-17z" />
<glyph unicode="(" horiz-adv-x="780" d="M684 -399q-133 0 -274 141q-121 121 -192 308.5t-71 416.5q0 221 73 411.5t190 307.5q145 145 274 145q45 0 45 -34.5t-14 -39.5q-207 -43 -336 -267t-129 -521q0 -305 128 -527.5t337 -267.5q14 -4 14 -38.5t-45 -34.5z" />
<glyph unicode=")" horiz-adv-x="780" d="M96 -399q-45 0 -45 34q0 33 15 39q209 45 336.5 267.5t127.5 527.5q0 297 -129 521t-335 267q-14 8 -15 39q0 35 45 35q131 0 275 -145q117 -115 189.5 -306.5t72.5 -412.5q0 -229 -70.5 -416.5t-191.5 -308.5q-142 -141 -275 -141z" />
<glyph unicode="*" horiz-adv-x="833" d="M215 762q-16 12 2 45l133 190l-219 80q-27 10 -27 29q0 51 50 39l225 -66l6 232q0 39 35 39q18 0 25.5 -8.5t9.5 -30.5l6 -232l223 66q51 12 51 -39q0 -16 -28 -29l-218 -80l132 -190q20 -33 4 -45q-35 -33 -62 4l-143 182l-144 -182q-28 -37 -61 -4z" />
<glyph unicode="+" horiz-adv-x="1126" d="M559 78q-41 0 -41 47v377h-350q-49 0 -49 39v10q0 39 49 39h350v352q0 47 41 47h8q43 0 43 -47v-352h351q47 0 47 -39v-10q0 -39 -47 -39h-351v-377q0 -47 -43 -47h-8z" />
<glyph unicode="," horiz-adv-x="452" d="M115 -264q-6 -14 -33 -6t-19 28l121 346q8 23 13.5 32t16.5 16.5t30 7.5h8q45 0 45 -54v-6q0 -35 -23 -73z" />
<glyph unicode="-" horiz-adv-x="780" d="M123 463v90h532v-90h-532z" />
<glyph unicode="." horiz-adv-x="452" d="M219 -10q-72 0 -72 71v15q0 72 72 71h14q72 0 72 -71v-15q0 -72 -72 -71h-14z" />
<glyph unicode="/" horiz-adv-x="710" d="M33 -395l526 1720h103l-527 -1720h-102z" />
<glyph unicode="0" horiz-adv-x="1341" d="M668 -20q-238 0 -377 165.5t-139 450.5v131q0 285 140 452t377.5 167t379 -167t141.5 -450v-129q0 -285 -141 -452.5t-381 -167.5zM670 68q195 0 306 142t111 390v123q0 248 -112.5 392.5t-305 144.5t-304 -143.5t-111.5 -389.5v-125q0 -248 111.5 -391t304.5 -143z" />
<glyph unicode="1" horiz-adv-x="749" d="M381 0v1155q-53 -88 -166 -88q-76 0 -117 41q-25 25 -24 57q0 16 7 29.5t15 21t10 5.5q37 -51 117 -52q70 0 118 47.5t52 114.5h43q47 0 47 -49v-1282h-102z" />
<glyph unicode="2" horiz-adv-x="1114" d="M188 0q-70 0 -69 66v47q0 104 32.5 185t98 142.5t128 101.5t159.5 87q199 100 258 151q98 84 98 199q0 123 -86 198.5t-242 75.5q-158 0 -249 -80.5t-126 -207.5q-4 -2 -19 -3t-32.5 14t-17.5 42q0 35 25.5 90t72.5 102q137 137 352 138q199 0 310.5 -101.5t111.5 -269.5 q0 -80 -27.5 -142.5t-91 -113.5t-119 -83t-155.5 -81q-92 -45 -147.5 -79t-116 -86t-89 -116.5t-28.5 -146.5v-35h797v-94h-828z" />
<glyph unicode="3" horiz-adv-x="1130" d="M528 -20q-248 0 -381 137q-82 82 -81 147q0 47 47 60q10 2 12 0q37 -113 145.5 -183.5t259.5 -70.5q170 0 270.5 79.5t100.5 212.5q0 139 -97 216t-276 77h-182v88h197q150 0 233.5 69t83.5 187.5t-88 189.5t-242 71q-127 0 -225 -61.5t-139 -154.5q-2 -4 -16.5 2.5 t-29 21.5t-14.5 34q0 41 60 104q143 139 364 140q203 0 319 -93.5t116 -253.5q0 -113 -65.5 -188.5t-182.5 -103.5q135 -35 212 -124t77 -221q0 -176 -128.5 -279t-349.5 -103z" />
<glyph unicode="4" horiz-adv-x="1222" d="M795 0v395h-615q-35 0 -54.5 15.5t-19.5 38.5v30q0 31 44 86l571 709q29 37 46 49t48 12q80 0 80 -67v-781h242v-92h-242v-395h-100zM199 487h600v750z" />
<glyph unicode="5" horiz-adv-x="1134" d="M551 -20q-246 0 -387 141q-63 63 -64 112q0 18 14.5 34t30 21t17.5 1q47 -98 150.5 -157.5t242.5 -59.5q172 0 273.5 89t101.5 242q0 143 -97.5 230.5t-257.5 87.5q-209 0 -350 -103q-68 8 -67 74v572q0 27 17.5 44t43.5 17h735v-92h-698v-498q145 80 319 80 q205 0 331 -111.5t126 -295.5q0 -199 -130 -313.5t-351 -114.5z" />
<glyph unicode="6" horiz-adv-x="1236" d="M252 733v-121q66 88 174.5 144.5t243.5 56.5q201 0 323.5 -108.5t122.5 -284.5v-8q0 -188 -130 -310t-329 -122q-238 0 -371.5 159.5t-133.5 438.5v149q0 291 138 455t376 164q221 0 338 -117q55 -55 55 -105q0 -16 -13.5 -31.5t-26.5 -21.5t-15 -4q-106 193 -338 193 q-195 0 -304.5 -137.5t-109.5 -389.5zM651 68q162 0 263.5 93t101.5 242v9q0 147 -94.5 231t-262.5 84q-129 0 -240.5 -62.5t-162.5 -156.5q16 -211 120.5 -325.5t274.5 -114.5zM252 537v6v-6z" />
<glyph unicode="7" horiz-adv-x="1091" d="M332 -6q-16 0 -30.5 9t-21 18.5t-4.5 13.5l627 1198h-811v92h864q59 0 60 -45v-10q0 -20 -29 -74l-600 -1163q-18 -39 -55 -39z" />
<glyph unicode="8" horiz-adv-x="1220" d="M610 -20q-225 0 -358 101t-133 269q0 121 80 212t227 126q-131 31 -197.5 112t-66.5 191q0 156 123 255.5t325 99.5q207 0 327 -96.5t120 -256.5q0 -111 -66.5 -191.5t-195.5 -113.5q147 -31 226 -123t79 -215q0 -162 -135.5 -266t-354.5 -104zM612.5 731 q161.5 0 251.5 68.5t90 189.5t-91 196t-253 75q-166 0 -256 -73t-90 -198q0 -117 93.5 -187.5t255 -70.5zM612 68q186 0 285.5 75.5t99.5 210.5q0 129 -103 209t-284 80q-182 0 -285.5 -79t-103.5 -210q0 -129 104.5 -207.5t286.5 -78.5z" />
<glyph unicode="9" horiz-adv-x="1236" d="M567 68q418 0 418 524v100q-59 -86 -171 -143t-247 -57q-203 0 -324.5 108.5t-121.5 286.5v12q0 188 130 317.5t329 129.5q231 0 368 -157t137 -441v-150q0 -303 -134 -460.5t-384 -157.5q-227 0 -344 116q-59 61 -59 113q0 16 13 31.5t26.5 21.5t17.5 4q43 -88 131 -143 t215 -55zM575 578q131 0 243 63.5t165 157.5q-14 219 -119.5 340t-279.5 121q-158 0 -260.5 -101.5t-102.5 -251.5v-12q0 -150 93 -233.5t261 -83.5z" />
<glyph unicode=":" horiz-adv-x="501" d="M244 715q-72 0 -72 69v17q0 33 19.5 52t52.5 19h14q72 0 72 -71v-17q0 -70 -72 -69h-14zM244 -10q-72 0 -72 71v15q0 72 72 71h14q72 0 72 -71v-15q0 -72 -72 -71h-14z" />
<glyph unicode=";" horiz-adv-x="501" d="M244 715q-72 0 -72 69v17q0 33 19.5 52t52.5 19h14q72 0 72 -71v-17q0 -70 -72 -69h-14zM139 -264q-6 -14 -32.5 -6t-18.5 28l121 346q8 23 13 32t16.5 16.5t29.5 7.5h8q45 0 46 -54v-6q0 -35 -23 -73z" />
<glyph unicode="&#x3c;" horiz-adv-x="1005" d="M827 109l-669 370q-31 18 -31 65.5t31 65.5l669 371q4 2 11.5 -4t15.5 -17.5t8 -23.5q4 -39 -61 -76l-578 -315l578 -314q66 -37 61 -75q-2 -20 -14.5 -34.5t-20.5 -12.5z" />
<glyph unicode="=" horiz-adv-x="1126" d="M188 715q-47 0 -47 41v10q0 41 47 41h750q47 0 47 -41v-10q0 -41 -47 -41h-750zM188 262q-47 0 -47 41v10q0 41 47 41h750q47 0 47 -41v-10q0 -41 -47 -41h-750z" />
<glyph unicode="&#x3e;" horiz-adv-x="1003" d="M174 109q-4 -2 -11 4t-14.5 17t-7.5 26q-4 39 62 75l577 314l-577 315q-68 39 -62 76q0 12 8.5 23.5t15.5 17.5t9 4l670 -371q33 -18 33 -65t-33 -66z" />
<glyph unicode="?" horiz-adv-x="999" d="M401 356q2 119 41 207t81 128t110 85q57 37 87 62.5t57.5 71.5t27.5 102q0 111 -78 177t-209 66q-154 0 -237.5 -82.5t-102.5 -205.5q-2 -4 -20.5 0t-36 19t-17.5 42q0 35 25 92.5t72 106.5q123 119 319 119q174 0 280.5 -91.5t106.5 -234.5q0 -76 -32.5 -136.5 t-69.5 -91t-100 -73.5q-53 -37 -82 -60.5t-66 -66.5t-53.5 -101.5t-16.5 -134.5h-86zM436 -6q-33 0 -46 13t-13 46v31q0 33 13 46t46 13h29q33 0 47 -13t14 -46v-31q0 -33 -14 -46t-47 -13h-29z" />
<glyph unicode="@" d="M813 -20q-309 0 -497.5 188t-188.5 494q0 299 186.5 491.5t479.5 192.5q299 0 478 -167t179 -450q0 -184 -70.5 -285.5t-203.5 -101.5q-82 0 -136.5 43t-66.5 115q-63 -156 -230 -156q-117 0 -195.5 86t-78.5 219q0 135 79 220t200 85q70 0 127 -35.5t88 -89.5v115h96 v-336q0 -190 135 -190q90 0 134 85t44 226q0 248 -157.5 396.5t-421.5 148.5q-260 0 -425 -172t-165 -440q0 -266 170 -437.5t440 -171.5q205 0 352 99q27 20 54 20q18 0 32.5 -21.5t8.5 -29.5q-74 -59 -194 -100t-253 -41zM766 430q84 0 140.5 55.5t56.5 137.5v100 q-59 147 -195 147q-88 0 -143.5 -61t-55.5 -160q0 -94 56.5 -156.5t140.5 -62.5z" />
<glyph unicode="A" horiz-adv-x="1284" d="M53 0l512 1296q16 39 76 39q61 0 78 -39l512 -1296h-115l-180 459h-592l-182 -459h-109zM377 549h526l-262 670z" />
<glyph unicode="B" horiz-adv-x="1280" d="M193 0v1264q0 27 16 44t43 17h420q211 0 320.5 -87t109.5 -251q0 -231 -254 -297q315 -55 315 -328q0 -362 -477 -362h-493zM295 92h389q195 0 284 64.5t89 210.5q0 266 -369 266h-393v-541zM295 723h383q150 0 233.5 69.5t83.5 188.5q0 252 -323 252h-377v-510z" />
<glyph unicode="C" horiz-adv-x="1406" d="M784 -20q-293 0 -473 189t-180 490.5t182.5 494t472.5 192.5q268 0 424 -156q72 -72 72 -125q0 -10 -3 -19.5t-8 -15.5t-11.5 -12t-12.5 -8l-12 -4q-6 -2 -9 -2h-5q-53 113 -171 183t-266 70q-244 0 -396 -167.5t-152 -427.5q0 -258 153.5 -426t398.5 -168 q172 0 289 81.5t158 202.5q2 4 18.5 0t33 -20.5t16.5 -38.5q0 -70 -91 -158q-66 -66 -176.5 -110.5t-251.5 -44.5z" />
<glyph unicode="D" horiz-adv-x="1417" d="M193 0v1264q0 27 16 44t43 17h313q342 0 532.5 -175t190.5 -484q0 -311 -194.5 -488.5t-538.5 -177.5h-362zM295 90h266q295 0 458 151.5t163 422.5q0 266 -163 418.5t-454 152.5h-270v-1145z" />
<glyph unicode="E" horiz-adv-x="1216" d="M193 0v1264q0 27 16 44t43 17h838v-92h-795v-508h625v-90h-625v-541h813v-94h-915z" />
<glyph unicode="F" horiz-adv-x="1134" d="M193 0v1264q0 27 16 44t43 17h797v-92h-754v-551h569v-90h-569v-592h-102z" />
<glyph unicode="G" horiz-adv-x="1482" d="M754 -20q-283 0 -453 190t-170 489q0 301 181.5 494t469.5 193q266 0 418 -152q72 -72 72 -121q0 -27 -14.5 -41t-29 -18t-18.5 0q-53 106 -168.5 174.5t-263.5 68.5q-240 0 -391 -167.5t-151 -428t143 -427t387 -166.5q195 0 326 113.5t147 287.5v90h-459v92h473 q33 0 54.5 -21.5t21.5 -56.5v-569q0 -10 -33 -10q-57 0 -57 100v164q-55 -129 -183 -203.5t-302 -74.5z" />
<glyph unicode="H" horiz-adv-x="1437" d="M193 0v1284q0 47 43 47h14q45 0 45 -47v-573h848v573q0 47 43 47h14q45 0 45 -47v-1284h-102v616h-848v-616h-102z" />
<glyph unicode="I" horiz-adv-x="526" d="M213 0v1325h102v-1325h-102z" />
<glyph unicode="J" horiz-adv-x="954" d="M410 -20q-141 0 -234.5 70.5t-93.5 129.5q0 18 14.5 34.5t28.5 24t16 3.5q33 -78 103.5 -126t165.5 -48q143 0 207.5 82.5t64.5 265.5v909h102v-909q0 -221 -90.5 -328.5t-283.5 -107.5z" />
<glyph unicode="K" horiz-adv-x="1150" d="M193 0v1284q0 47 43 47h14q45 0 45 -47v-594l629 610q31 29 59.5 30t41.5 -15.5t9 -36.5l-626 -598l645 -633q4 -35 -35 -50q-11 -5 -23 -5l-55 26l-645 648v-666h-102z" />
<glyph unicode="L" horiz-adv-x="1085" d="M193 0v1284q0 47 43 47h14q45 0 45 -47v-1190h649q47 0 47 -43v-8q0 -43 -47 -43h-751z" />
<glyph unicode="M" d="M193 0v1266q0 29 19 47t52 18h25q37 0 53 -15.5t37 -60.5l405 -802l408 802q18 43 34.5 59.5t53.5 16.5h20q33 0 53.5 -18.5t20.5 -46.5v-1266h-98v1214l-406 -792q-27 -63 -88 -63.5t-88 63.5l-405 792v-1214h-96z" />
<glyph unicode="N" horiz-adv-x="1439" d="M193 0v1262q0 70 55 69h26q41 0 80 -55l799 -1118v1167h96v-1264q0 -29 -14 -48t-39 -19h-8q-27 0 -40 9t-30 34l-829 1161v-1198h-96z" />
<glyph unicode="O" d="M782.5 -20q-290.5 0 -471 190t-180.5 489t182.5 493t473 194t470 -191.5t179.5 -490.5t-181.5 -491.5t-472 -192.5zM784.5 68q241.5 0 394 167.5t152.5 426t-153.5 427t-395 168.5t-394 -167.5t-152.5 -427.5q0 -258 153.5 -426t395 -168z" />
<glyph unicode="P" horiz-adv-x="1179" d="M193 0v1264q0 27 16 44t43 17h340q233 0 360 -103.5t127 -293.5q0 -195 -127 -299.5t-370 -104.5h-287v-524h-102zM295 614h295q188 0 285.5 80t97.5 230q0 152 -96.5 230.5t-282.5 78.5h-299v-619z" />
<glyph unicode="Q" d="M782 -20q-291 0 -471 190t-180 489t182.5 493t473 194t470 -191.5t179.5 -490.5q0 -283 -172 -476l157 -159q2 -2 -4 -13.5t-21.5 -22.5t-33.5 -11q-25 0 -53 28l-113 115q-174 -145 -414 -145zM784 68q205 0 346 118l-313 318l64 67l315 -319q135 164 135 410 q0 258 -153.5 426.5t-395 168.5t-394 -167.5t-152.5 -427.5q0 -258 153 -426t395 -168z" />
<glyph unicode="R" horiz-adv-x="1208" d="M635 567h-45l491 -524q4 -4 -3 -16.5t-22.5 -22.5t-35.5 -10q-33 0 -64 37l-497 536h-166v-567h-100v1264q0 27 16 44t43 17h358q233 0 355 -96t122 -281q0 -182 -118.5 -281.5t-333.5 -99.5zM293 655h328q178 0 269 77t91 212q0 289 -367 289h-321v-578z" />
<glyph unicode="S" horiz-adv-x="1157" d="M590 -20q-268 0 -412 143q-66 63 -65 121q0 20 14 36.5t29.5 22.5t17.5 2q45 -100 149.5 -168.5t264.5 -68.5q162 0 256 72.5t94 199.5q0 68 -28.5 117t-90 81.5t-115 49t-147.5 39.5q-76 18 -123 32.5t-107.5 43t-95 64.5t-59.5 92t-25 130q0 156 123 256.5t310 100.5 q240 0 370 -127q57 -57 58 -107q0 -20 -14.5 -36.5t-29 -22.5t-18.5 -4q-41 90 -135 149t-231 59q-145 0 -238.5 -72.5t-93.5 -193.5q0 -53 19.5 -94t46 -65.5t82 -47t95 -34t117.5 -29.5q96 -23 159.5 -45.5t132.5 -64.5t103.5 -108.5t34.5 -158.5q0 -164 -122.5 -264 t-325.5 -100z" />
<glyph unicode="T" horiz-adv-x="1226" d="M563 0v1233h-438q-47 0 -47 41v8q0 43 47 43h977q49 0 49 -43v-8q0 -41 -49 -41h-436v-1233h-103z" />
<glyph unicode="U" horiz-adv-x="1353" d="M674 -20q-248 0 -375 136t-127 400v768q0 47 43 47h14q45 0 45 -47v-760q0 -453 403.5 -452.5t403.5 452.5v760q0 47 43 47h19q39 0 39 -47v-764q0 -264 -130 -402t-378 -138z" />
<glyph unicode="V" horiz-adv-x="1275" d="M582 0l-519 1300q-2 10 21 21q22 12 40 11q30 0 50 -32q6 -8 10 -18l455 -1173l457 1173q19 50 57 50q15 0 33 -7q27 -12 26 -25l-516 -1300h-114z" />
<glyph unicode="W" horiz-adv-x="1867" d="M461 0l-326 1309q-2 12 31 20q13 3 24 4q48 0 64 -65q2 -2 2 -4l276 -1172l322 969q20 59 84 59q37 0 53.5 -13t26.5 -46l319 -967l283 1170q15 68 62 68q9 0 20 -3q33 -8 31 -20l-326 -1309h-137l-332 1018l-344 -1018h-133z" />
<glyph unicode="X" horiz-adv-x="1224" d="M129 -6q-25 0 -41 19q-12 14 -12 24q0 3 2 6l475 631l-457 651h111l409 -580l418 558q25 33 51 32q16 0 29.5 -10t20 -21.5t2.5 -15.5l-465 -616l471 -625q2 -2 2 -5q0 -4 -3 -11q-5 -12 -19.5 -22.5t-32.5 -10.5q-37 0 -58 31l-422 575l-430 -577q-24 -33 -51 -33z" />
<glyph unicode="Y" horiz-adv-x="1163" d="M530 0v567l-481 758h113l420 -666l419 635q23 35 52 37h6q25 0 40 -15q17 -17 15 -28l-481 -721v-567h-103z" />
<glyph unicode="Z" horiz-adv-x="1259" d="M125 0v109l874 1124h-817q-47 0 -47 41v8q0 43 47 43h930v-102l-876 -1129h856q49 0 49 -43v-8q0 -43 -49 -43h-967z" />
<glyph unicode="[" horiz-adv-x="720" d="M203 -395v1720h385q47 0 47 -39v-10q0 -39 -47 -39h-291v-1542h291q47 0 47 -41v-10q0 -39 -47 -39h-385z" />
<glyph unicode="\" horiz-adv-x="710" d="M573 -395l-526 1720h103l526 -1720h-103z" />
<glyph unicode="]" horiz-adv-x="720" d="M518 -395h-385q-47 0 -47 39v10q0 41 47 41h291v1542h-291q-47 0 -47 39v10q0 39 47 39h385v-1720z" />
<glyph unicode="^" horiz-adv-x="1085" d="M330 922q-33 0 -33 34.5t104 157.5q35 39 69 72t52.5 47t20.5 14t20.5 -14t51 -46t65.5 -69q106 -125 106 -162q0 -35 -30 -34q-35 0 -133 129l-82 108l-82 -112q-94 -125 -129 -125z" />
<glyph unicode="_" horiz-adv-x="987" d="M104 -94q-47 0 -47 43v8q0 43 47 43h779q47 0 47 -43v-8q0 -43 -47 -43h-779z" />
<glyph unicode="`" horiz-adv-x="1085" d="M684 1120q-4 -6 -44 6.5t-109.5 48t-137.5 85.5q-78 57 -78 94q0 18 12.5 29.5t30.5 11.5q35 0 93 -45q66 -49 124 -103.5t85.5 -88.5t23.5 -38z" />
<glyph unicode="a" horiz-adv-x="1087" d="M442 -20q-156 0 -246 72.5t-90 193.5q0 164 167 238.5t534 78.5h20v49q0 137 -78.5 212t-218.5 75q-236 0 -329 -184q-4 0 -15.5 3t-26 17.5t-14.5 36.5q0 43 56 94q123 123 336 123q180 0 283.5 -99t103.5 -276v-614h-97v193q-49 -96 -151.5 -154.5t-233.5 -58.5z M451 61q158 0 267 95.5t109 232.5v96h-26q-317 -6 -455.5 -61t-138.5 -178q0 -86 65.5 -135.5t178.5 -49.5z" />
<glyph unicode="b" horiz-adv-x="1220" d="M647 -20q-139 0 -238.5 63t-140.5 154v-197h-96v1378q0 10 33 11q66 0 65 -97v-522q131 219 383 219q197 0 329 -140t132 -362q0 -225 -131 -366t-336 -141zM639 66q168 0 272.5 116.5t104.5 304.5q0 180 -106.5 298t-266.5 118q-135 0 -231.5 -70.5t-143.5 -193.5v-223 q0 -145 107.5 -247.5t263.5 -102.5z" />
<glyph unicode="c" horiz-adv-x="1110" d="M600 -20q-215 0 -354.5 144t-139.5 363q0 217 139.5 359.5t354.5 142.5q211 0 336 -125q74 -74 74 -137q0 -20 -15.5 -32.5t-31 -15.5t-17.5 -1q-86 225 -346 225q-172 0 -283.5 -118.5t-111.5 -297.5q0 -180 110.5 -299.5t284.5 -119.5q260 0 346 223q2 4 17.5 1 t31 -16.5t15.5 -33.5q0 -61 -76 -140q-123 -122 -334 -122z" />
<glyph unicode="d" horiz-adv-x="1220" d="M567 -20q-199 0 -330 140t-131 365q0 221 132.5 362.5t334.5 141.5q133 0 232.5 -59.5t144.5 -149.5v598q0 10 33 11q66 0 66 -97v-1292h-99v197q-121 -217 -383 -217zM578 66q156 0 264 101t108 247v227q-98 262 -370 262q-164 0 -269.5 -116.5t-105.5 -299.5 q0 -184 104.5 -302.5t268.5 -118.5z" />
<glyph unicode="e" horiz-adv-x="1136" d="M602 -20q-221 0 -358.5 141t-137.5 360q0 217 137.5 362.5t346.5 145.5q199 0 321.5 -130t122.5 -343v-10q0 -20 -9 -27.5t-34 -7.5h-788q4 -180 114.5 -291.5t284.5 -111.5q246 0 346 194q4 2 17.5 -2t27 -19.5t13.5 -35.5q0 -43 -62 -105q-121 -120 -342 -120zM590 903 q-150 0 -255.5 -97t-127.5 -251h725q-6 156 -100.5 252t-241.5 96z" />
<glyph unicode="f" horiz-adv-x="698" d="M260 0v881h-203v88h203v104q0 166 69.5 251t200.5 85q109 0 162 -53q23 -23 23 -51q0 -14 -6.5 -26.5t-13.5 -18t-9 -3.5q-55 66 -156 66q-176 0 -176 -256v-98h256v-88h-254v-881h-96z" />
<glyph unicode="g" horiz-adv-x="1220" d="M596 -403q-233 0 -367 129q-59 59 -59 106q0 23 13.5 39t26.5 21.5t17 1.5q96 -209 371 -209q352 0 352 368v166q-119 -207 -383 -207q-205 0 -333 134.5t-128 353.5q0 211 134.5 350t332.5 139q135 0 234.5 -57.5t142.5 -145.5v183h99v-916q0 -225 -118 -340.5 t-335 -115.5zM578 96q156 0 264 98.5t108 241.5v207q-98 260 -370 260q-164 0 -269.5 -113.5t-105.5 -287.5q0 -182 102.5 -294t270.5 -112z" />
<glyph unicode="h" horiz-adv-x="1169" d="M172 0v1378q0 10 33 11q66 0 65 -97v-514q43 96 135.5 153.5t208.5 57.5q190 0 291 -115.5t101 -316.5v-557h-99v551q0 162 -77.5 254t-221.5 92q-145 0 -241.5 -94t-96.5 -246v-557h-98z" />
<glyph unicode="i" horiz-adv-x="462" d="M182 0v928q0 47 43 47h13q43 0 43 -47v-928h-99zM229 1231q-66 0 -65 67q0 70 69 70q68 0 68 -70q0 -67 -72 -67z" />
<glyph unicode="j" horiz-adv-x="462" d="M31 -389q-102 0 -150 47q-20 20 -20 41q0 14 7 27.5t13 21.5t8 6q57 -57 142 -57q152 0 151 201v1071h99v-1078q0 -135 -63.5 -207.5t-186.5 -72.5zM229 1231q-66 0 -65 67q0 70 69 70q68 0 68 -70q0 -67 -72 -67z" />
<glyph unicode="k" horiz-adv-x="940" d="M172 0v1378q0 10 33 11q66 0 65 -97v-770l443 414q37 37 66.5 38t40.5 -16.5t9 -29.5l-450 -412l508 -471q2 -14 -9.5 -31.5t-39.5 -18.5h-2q-28 0 -66 38l-500 467v-500h-98z" />
<glyph unicode="l" horiz-adv-x="462" d="M182 0v1378q0 10 33 11q66 0 66 -97v-1292h-99z" />
<glyph unicode="m" horiz-adv-x="1814" d="M172 0v965q0 10 33 10q63 0 63 -98v-84q49 90 135 143t189 53q127 0 213 -60.5t121 -166.5q45 104 138 165.5t214 61.5q180 0 276.5 -108.5t96.5 -309.5v-571h-99v565q0 160 -71.5 246t-208.5 86q-100 0 -187.5 -60.5t-123.5 -164.5v-672h-99v588q0 147 -71.5 228 t-208.5 81q-98 0 -184.5 -60.5t-127.5 -162.5v-674h-98z" />
<glyph unicode="n" horiz-adv-x="1169" d="M172 0v965q0 10 33 10q63 0 63 -98v-89q51 92 141.5 146.5t206.5 54.5q188 0 289 -115.5t101 -316.5v-557h-99v551q0 162 -76.5 254t-218.5 92q-119 0 -208 -60.5t-134 -164.5v-672h-98z" />
<glyph unicode="o" horiz-adv-x="1204" d="M602 -20q-217 0 -356.5 144t-139.5 361t139.5 360.5t356.5 143.5q215 0 354.5 -144.5t139.5 -363.5q0 -215 -139.5 -358t-354.5 -143zM602 66q170 0 282.5 118.5t112.5 296.5q0 180 -112.5 301t-282.5 121q-172 0 -284.5 -119.5t-112.5 -298t112.5 -299t284.5 -120.5z " />
<glyph unicode="p" horiz-adv-x="1220" d="M172 -389v1354q0 10 33 10q63 0 63 -98v-107q131 219 385 219q197 0 329 -140t132 -362q0 -225 -131 -366t-336 -141q-137 0 -236.5 63t-140.5 154v-586h-98zM639 66q168 0 272.5 116.5t104.5 304.5q0 180 -106.5 298t-266.5 118q-135 0 -231.5 -70.5t-143.5 -193.5v-223 q0 -145 107.5 -247.5t263.5 -102.5z" />
<glyph unicode="q" horiz-adv-x="1220" d="M950 -389v584q-121 -215 -383 -215q-199 0 -330 140t-131 365q0 221 132.5 362.5t334.5 141.5q135 0 234.5 -60.5t142.5 -150.5v99q0 98 64 98q35 0 35 -10v-1354h-99zM578 66q156 0 264 102t108 248v221q-47 125 -140 195.5t-230 70.5q-164 0 -269.5 -116.5 t-105.5 -299.5q0 -184 104.5 -302.5t268.5 -118.5z" />
<glyph unicode="r" horiz-adv-x="733" d="M172 0v965q0 10 33 10q63 0 63 -98v-121q59 233 269 233q57 0 96 -22.5t39 -59.5q0 -16 -6.5 -29.5t-13.5 -18.5t-9 -3q-43 39 -117 39q-127 0 -191.5 -115.5t-64.5 -318.5v-461h-98z" />
<glyph unicode="s" horiz-adv-x="970" d="M485 -20q-231 0 -344 112q-47 47 -47 80q0 18 12.5 31.5t25.5 18.5t15 3q106 -164 342 -164q129 0 204 52.5t75 136.5q0 88 -67.5 125t-233.5 71l-98 23q-35 8 -89.5 28.5t-83 46t-51 67.5t-22.5 98q0 125 100.5 202.5t261.5 77.5q207 0 314 -106q37 -37 37 -72 q0 -18 -12.5 -31.5t-26 -18.5t-15.5 -1q-39 66 -117.5 106.5t-179.5 40.5q-123 0 -195.5 -51t-72.5 -133q0 -84 66.5 -120t224.5 -71q66 -14 102.5 -23t93 -30.5t85 -47t52 -69t23.5 -98.5q0 -127 -102.5 -205.5t-276.5 -78.5z" />
<glyph unicode="t" horiz-adv-x="741" d="M485 -20q-254 0 -254 301v600h-159v88h159v188q0 49 43 49h13q41 0 41 -49v-188h321v-88h-321v-590q0 -119 39 -173.5t122 -54.5q102 0 158 84q2 2 10.5 -2t15.5 -16t7 -31q0 -31 -33 -61q-53 -57 -162 -57z" />
<glyph unicode="u" horiz-adv-x="1169" d="M551 -20q-188 0 -287.5 115.5t-99.5 316.5v557h98v-551q0 -162 77 -254t218 -92q119 0 208 60.5t134 166.5v670h98v-965q0 -10 -34 -10q-61 0 -62 98v88q-51 -90 -142 -145t-208 -55z" />
<glyph unicode="v" horiz-adv-x="1005" d="M446 0l-385 946q0 12 22 25q11 6 23.5 6t27.5 -6q30 -12 48 -62l322 -821l323 821q18 49 47 62q14 6 26.5 6t23.5 -6q20 -12 20 -25l-383 -946h-115z" />
<glyph unicode="w" horiz-adv-x="1421" d="M340 0l-250 948q0 8 23 22q12 7 25 7t27 -6q30 -12 42 -68l199 -813l233 686q12 43 76 43q61 0 76 -43l231 -686l197 813q12 55 41 67q14 5 26 5q13 0 25 -6q23 -12 22 -21l-250 -948h-120l-248 723l-254 -723h-121z" />
<glyph unicode="x" horiz-adv-x="993" d="M131 -6q-18 0 -31.5 10t-17.5 20.5t-2 12.5l356 448l-350 447q-2 4 2 14t16.5 19.5t30.5 9.5q37 0 74 -49l291 -379l286 377q37 51 74 51q18 0 31.5 -10.5t17.5 -20.5t2 -12l-354 -447l350 -448q2 -4 -2 -14.5t-16 -19.5t-31 -9q-37 0 -74 49l-292 383l-287 -381 q-39 -51 -74 -51z" />
<glyph unicode="y" horiz-adv-x="999" d="M373 -395q-12 0 -25.5 5t-21 11t-4.5 10l172 422q-45 0 -62 39l-381 877h103l366 -854l326 854h104l-508 -1299q-22 -65 -69 -65z" />
<glyph unicode="z" horiz-adv-x="1003" d="M104 0v76l654 809h-598q-49 0 -49 37v10q0 37 49 37h729v-68l-660 -817h623q51 0 51 -37v-10q0 -37 -51 -37h-748z" />
<glyph unicode="{" horiz-adv-x="868" d="M756 -401q-117 0 -252 135q-184 184 -199 549l-153 90q-43 25 -55.5 40t-12.5 54t12.5 54.5t55.5 39.5l153 90q14 360 199 549q135 135 252 135q39 0 39 -43q0 -35 -15 -39q-193 -53 -280.5 -212.5t-96.5 -440.5l-233 -133l233 -133q8 -283 96.5 -442.5t280.5 -213.5 q14 -4 15 -38q0 -41 -39 -41z" />
<glyph unicode="|" horiz-adv-x="532" d="M260 -395q-43 0 -43 47v1632q0 47 43 47h12q43 0 43 -47v-1632q0 -47 -43 -47h-12z" />
<glyph unicode="}" horiz-adv-x="868" d="M111 -401q-39 0 -39 41q0 35 14 38q193 53 281 213t96 443l233 133l-233 133q-8 281 -96 440.5t-281 212.5q-14 4 -14 39q0 43 39 43q117 0 251 -135q184 -188 199 -549l154 -90q43 -25 55 -40t12 -54t-13 -56.5t-54 -37.5l-154 -90q-14 -365 -199 -549 q-134 -135 -251 -135z" />
<glyph unicode="~" horiz-adv-x="1083" d="M666 342q-74 0 -158 84q-59 59 -94 59q-51 0 -70 -86q-12 -45 -43 -45q-18 0 -37 13q14 203 152 202q78 0 157 -84q59 -61 97 -61q51 0 69 86q12 47 43 47q20 0 35 -14q-10 -201 -151 -201z" />
<glyph unicode="&#xa1;" horiz-adv-x="536" d="M274 971q23 0 23 -41l33 -930h-123l31 930q4 41 24 41h12zM276 1335q70 0 70 -71v-15q0 -72 -70 -71h-16q-70 0 -70 71v15q0 72 70 71h16z" />
<glyph unicode="&#xa2;" horiz-adv-x="1146" d="M610 -201q-41 0 -41 47v222q-203 18 -324.5 154t-121.5 353q0 207 126 349.5t320 160.5v213q0 47 41 48h8q41 0 41 -48v-211q197 -12 310 -126q63 -63 63 -109q0 -20 -12 -35.5t-25.5 -22t-17.5 -1.5q-92 193 -322 206v-845q123 4 208 64.5t124 156.5q4 4 18.5 0 t28 -18.5t13.5 -34.5q0 -55 -76 -132q-117 -117 -312 -124v-220q0 -47 -41 -47h-8zM573 158v841q-156 -14 -253 -127.5t-97 -296.5q0 -176 97 -288.5t253 -128.5z" />
<glyph unicode="&#xa3;" horiz-adv-x="1208" d="M125 0q-47 0 -47 43v8q0 43 47 43h127l84 455h-184q-47 0 -48 41v10q0 41 48 41h200l58 307q37 201 129 301.5t256 100.5q156 0 243 -93q74 -78 74 -170q0 -27 -17.5 -42t-32.5 -15h-22q-14 109 -77.5 170.5t-167.5 61.5q-127 0 -190.5 -76t-96.5 -244l-55 -301h374 q47 0 47 -41v-10q0 -41 -47 -41h-391l-84 -455h690q47 0 48 -45v-6q0 -43 -48 -43h-917z" />
<glyph unicode="&#xa4;" horiz-adv-x="1341" d="M823 -20q-207 0 -341 126.5t-169 356.5h-159q-49 0 -50 39v8q0 39 50 39h149q-2 23 -2 69v93q0 49 2 75h-149q-49 0 -50 39v9q0 41 50 40h161q37 217 170 344.5t330 127.5q213 0 334 -125q70 -72 70 -136q0 -20 -14.5 -34.5t-29 -18.5t-18.5 -2q-96 229 -348 230 q-152 0 -256 -103.5t-139 -282.5h473q47 0 47 -40v-9q0 -39 -47 -39h-486q-2 -25 -2 -75v-97q0 -43 2 -65h486q47 0 47 -39v-8q0 -39 -47 -39h-473q35 -182 141.5 -288.5t263.5 -106.5q258 0 348 241q2 4 17.5 0t30 -19.5t14.5 -37.5q0 -70 -76 -143q-125 -129 -330 -129z " />
<glyph unicode="&#xa5;" horiz-adv-x="1193" d="M590 -6q-41 0 -41 47v211h-354q-47 0 -48 39v10q0 39 48 39h354v203h-354q-47 0 -48 39v8q0 39 48 39h323l-418 659q-4 8 17.5 25.5t53.5 17.5t50 -35l375 -628l381 626q20 37 51 38t49.5 -17.5t14.5 -26.5l-418 -659h323q47 0 47 -39v-8q0 -39 -47 -39h-354v-203h354 q47 0 47 -39v-10q0 -39 -47 -39h-354v-211q0 -47 -43 -47h-10z" />
<glyph unicode="&#xa7;" horiz-adv-x="1087" d="M535 -322q-250 0 -373 123q-63 63 -64 115q0 18 13.5 34.5t27 23t15.5 3.5q100 -209 378 -208q147 0 234.5 56t87.5 152q0 39 -9 69t-37 52.5t-48.5 37t-73.5 29.5l-80 22q-27 7 -98 24q-74 16 -119 28.5t-105.5 38t-94 55t-58.5 78t-25 107.5q0 94 66 160.5t180 95.5 q-209 74 -209 260q0 137 117 224.5t289 87.5q223 0 342 -119q53 -57 53 -101q0 -18 -12 -33.5t-25.5 -21.5t-17.5 -4q-104 188 -340 188q-131 0 -219 -57t-88 -151q0 -100 82 -148.5t258 -87.5q74 -16 117.5 -28.5t105 -38t95.5 -55.5t58.5 -77t24.5 -106q0 -94 -63.5 -162 t-174.5 -98q98 -33 152.5 -93.5t54.5 -168.5q0 -137 -115.5 -221.5t-301.5 -84.5zM631 279q109 10 183.5 73.5t74.5 143.5q0 43 -19.5 76.5t-47 55t-80 41t-92.5 30t-111 26.5l-78 16q-113 -12 -186.5 -75.5t-73.5 -139.5q0 -53 25.5 -91t80.5 -64.5t105.5 -41t138.5 -32.5z " />
<glyph unicode="&#xa8;" horiz-adv-x="1085" d="M707 1116q-78 0 -78 78t76 78q35 0 56 -20.5t21 -57.5t-20 -57.5t-55 -20.5zM381 1116q-35 0 -56.5 20.5t-21.5 57.5t20.5 57.5t55.5 20.5q78 0 78 -78q0 -37 -20.5 -57.5t-55.5 -20.5z" />
<glyph unicode="&#xa9;" horiz-adv-x="1595" d="M797 -20q-293 0 -479.5 190t-186.5 489q0 295 190.5 491t477.5 196q295 0 481 -190.5t186 -489.5q0 -295 -190 -490.5t-479 -195.5zM801 53q256 0 419.5 171t163.5 440q0 264 -166.5 437t-420.5 173q-258 0 -421 -171t-163 -441q0 -264 166 -436.5t422 -172.5zM815 297 q-158 0 -257 101.5t-99 260.5q0 156 101.5 260.5t252.5 104.5q147 0 227 -84q43 -43 43 -82q0 -14 -12 -26.5t-24.5 -17.5t-14.5 -3q-57 129 -221 129q-109 0 -183.5 -81t-74.5 -197q0 -123 74.5 -202t191.5 -79q164 0 221 139q2 4 15.5 0t26 -17.5t12.5 -29.5 q0 -41 -54 -96q-80 -80 -225 -80z" />
<glyph unicode="&#xaa;" horiz-adv-x="913" d="M387 537q-131 0 -208 56t-77 155q0 123 123 186t447 76v20q0 111 -59.5 172.5t-174.5 61.5q-172 0 -252 -144q-2 -2 -14 1t-24.5 16.5t-12.5 31.5q0 31 47 82q98 94 262 95q156 0 238 -84t82 -232v-473q0 -10 -31 -10q-59 0 -59 86v63q-37 -72 -115 -115.5t-172 -43.5z M440 -10q-66 0 -65 65v13q0 66 65 65h13q66 0 65 -65v-13q0 -66 -65 -65h-13zM399 612q113 0 194 66.5t81 159.5v104q-279 -12 -378 -57t-99 -133q0 -66 54 -103t148 -37z" />
<glyph unicode="&#xab;" horiz-adv-x="1060" d="M889 170q-45 0 -205 135q-53 47 -96 90t-64.5 68.5t-21.5 32t20.5 31t63.5 67.5t96 88q162 139 207 139q16 0 27.5 -10t11.5 -27q0 -39 -178 -174q-39 -31 -156 -116q102 -72 160 -119q98 -78 136 -113t38 -57q0 -14 -11.5 -24.5t-27.5 -10.5zM481 193q-39 0 -188 124 q-51 43 -92 84t-60.5 64.5t-19.5 30t19.5 29t60.5 63.5t92 84q145 125 188 125q33 0 33 -35q0 -33 -156 -154l-151 -114q74 -51 160 -119q147 -117 147 -148q0 -34 -33 -34z" />
<glyph unicode="&#xad;" horiz-adv-x="780" d="M123 463v90h532v-90h-532z" />
<glyph unicode="&#xae;" horiz-adv-x="1595" d="M797 -20q-293 0 -479.5 190t-186.5 489q0 295 190.5 491t477.5 196q295 0 481 -190.5t186 -489.5q0 -295 -190 -490.5t-479 -195.5zM801 53q256 0 419.5 171t163.5 440q0 264 -166.5 437t-420.5 173q-258 0 -421 -171t-163 -441q0 -264 166 -436.5t422 -172.5zM1081 809 q0 -96 -62.5 -150.5t-182.5 -56.5l239 -250q2 -4 -3 -13t-18.5 -17.5t-27.5 -8.5q-37 0 -63 33l-226 250h-88v-240q0 -43 -39 -43h-14q-39 0 -39 47v607q0 55 51 55h207q266 0 266 -213zM647 672h170q174 0 174 137q0 135 -178 135h-166v-272z" />
<glyph unicode="&#xaf;" horiz-adv-x="1085" d="M334 1161q-59 0 -60 43v8q0 41 60 41h418q59 0 59 -41v-8q0 -43 -59 -43h-418z" />
<glyph unicode="&#xb0;" horiz-adv-x="843" d="M418 758q-123 0 -203 81t-80 205v17q0 123 83 206t208 83q123 0 203 -82t80 -205v-16q0 -123 -84 -206t-207 -83zM422 838q86 0 144.5 59t58.5 147v17q0 88 -59.5 148.5t-145.5 60.5t-143.5 -59.5t-57.5 -147.5v-16q0 -88 58.5 -148.5t144.5 -60.5z" />
<glyph unicode="&#xb1;" horiz-adv-x="1290" d="M690 1221v-299h297q47 0 47 -39v-11q0 -39 -47 -38h-297v-316q0 -47 -41 -47h-8q-43 0 -43 47v316h-297q-47 0 -47 38v11q0 39 47 39h297v299q0 49 43 49h8q41 0 41 -49zM270 262q-47 0 -47 41v10q0 41 47 41h750q47 0 47 -41v-10q0 -41 -47 -41h-750z" />
<glyph unicode="&#xb2;" horiz-adv-x="749" d="M201 670v-4h399q45 0 45 -37v-6q0 -39 -45 -39h-420q-61 0 -61 53v33q0 104 58.5 163.5t172.5 114.5q127 63 158 96t31 78q0 59 -43 97t-121 38q-152 0 -191 -151q-4 0 -18 -1t-31.5 11t-17.5 35q0 63 69 121q78 68 197 67.5t184.5 -58.5t65.5 -157q0 -47 -15.5 -81.5 t-50.5 -63.5t-64.5 -45t-84.5 -43q-74 -33 -111 -54.5t-71.5 -65.5t-34.5 -101z" />
<glyph unicode="&#xb3;" horiz-adv-x="749" d="M635 791q0 -102 -74 -161t-205 -59q-100 0 -174 45q-96 53 -96 117q0 23 14.5 35t27.5 14t15 0q18 -61 74.5 -98t136.5 -37q86 0 140.5 41t54.5 106.5t-51.5 103.5t-137.5 38h-65q-45 0 -45 35v6q0 33 45 33h76q72 0 114.5 33.5t42.5 89.5q0 57 -48 93t-126 36 q-70 0 -120 -34t-70 -83q-2 -2 -15.5 1t-26.5 15.5t-13 32.5q0 51 71 94q78 51 176 51q123 0 190.5 -53t67.5 -145q0 -125 -131 -162q152 -43 152 -188z" />
<glyph unicode="&#xb4;" horiz-adv-x="1085" d="M401 1120q-4 4 25 38t86 88t123 104q61 45 92 45q18 0 31.5 -11.5t13.5 -29.5q0 -35 -78 -94q-68 -49 -138.5 -85t-110.5 -48.5t-44 -6.5z" />
<glyph unicode="&#xb6;" horiz-adv-x="1257" d="M1008 -6q-45 0 -45 47v1243q0 47 45 47h12q45 0 45 -47v-1243q0 -47 -45 -47h-12zM801 -6q-45 0 -45 47v582h-183q-471 0 -471 346q0 174 117 266t344 92h232q27 0 44 -17.5t17 -43.5v-1225q0 -47 -43 -47h-12z" />
<glyph unicode="&#xb7;" horiz-adv-x="483" d="M233 430q-70 0 -69 70v16q0 72 69 72h15q72 0 71 -72v-16q0 -70 -71 -70h-15z" />
<glyph unicode="&#xb8;" horiz-adv-x="1085" d="M428 -436q-10 -12 -35.5 -4t-15.5 28l127 260q12 31 23.5 42.5t37.5 11.5h8q20 0 36 -13.5t16 -31.5v-7q0 -12 -39 -65z" />
<glyph unicode="&#xb9;" horiz-adv-x="749" d="M182 584q-45 0 -45 37v4q0 41 45 41h170v526q-39 -51 -112 -51q-53 0 -82 28q-25 18 -25 48q0 14 7 25t14.5 17.5t9.5 4.5q25 -35 82 -35q45 0 80.5 28.5t38.5 73.5h34q45 0 45 -47v-618h150q45 0 45 -41v-4q0 -37 -45 -37h-412z" />
<glyph unicode="&#xba;" horiz-adv-x="1011" d="M506 535q-168 0 -280.5 115.5t-112.5 287.5q0 170 113.5 289t281.5 119t279.5 -116t111.5 -288t-113.5 -289.5t-279.5 -117.5zM498 -10q-63 0 -64 65v13q0 66 64 65h14q66 0 66 -65v-13q0 -66 -66 -65h-14zM506 616q131 0 217 93.5t86 230.5t-86 230.5t-215 93.5 q-131 0 -217 -93.5t-86 -230.5q0 -135 86 -229.5t215 -94.5z" />
<glyph unicode="&#xbb;" horiz-adv-x="1060" d="M172 170q-37 0 -37 37q0 41 176 174l156 117l-160 116q-172 133 -172 172q0 35 37 35q45 0 205 -135q53 -47 96 -90t64.5 -68.5t21.5 -32t-20.5 -31t-63.5 -67.5t-96 -90q-158 -137 -207 -137zM580 195q-33 0 -33 32q0 31 155 156l152 115q-74 51 -160 118 q-147 119 -147 148q0 33 33 33q41 0 188 -123q51 -45 92 -85t61.5 -63.5t20.5 -29.5q0 -27 -174 -179q-147 -122 -188 -122z" />
<glyph unicode="&#xbc;" horiz-adv-x="1683" d="M182 584q-45 0 -45 37v4q0 41 45 41h170v526q-39 -51 -112 -51q-53 0 -82 28q-25 18 -25 48q0 14 7 25t14.5 17.5t9.5 4.5q25 -35 82 -35q45 0 80.5 28.5t38.5 73.5h34q45 0 45 -47v-618h150q45 0 45 -41v-4q0 -37 -45 -37h-412zM1393 1262q0 -35 -39 -82 q-10 -14 -88 -110l-190 -230l-179 -222l-207 -258l-235 -294l-97 -121h-14q-10 0 -20.5 9t-10.5 23q0 33 37 82q12 16 88 109l191 231l180 219l539 676q45 1 45 -32zM1434 -4q-39 0 -39 45v168h-326q-61 0 -61 43v20q2 25 28 60l289 375q29 43 86 43q39 0 54.5 -14.5 t15.5 -49.5v-399h96q43 0 43 -37v-4q0 -37 -43 -37h-96v-168q0 -45 -41 -45h-6zM1395 674l-301 -389h303z" />
<glyph unicode="&#xbd;" horiz-adv-x="1683" d="M1135 86v-4h399q45 0 45 -37v-6q0 -39 -45 -39h-420q-61 0 -61 53v33q0 104 58 163.5t173 115.5q127 63 158 96t31 78q0 59 -43.5 97t-120.5 38q-152 0 -191 -152q-4 0 -18.5 -1t-31.5 11.5t-17 34.5q0 63 69 121q78 68 197 68t184.5 -58.5t65.5 -156.5q0 -47 -15.5 -82 t-50.5 -63.5t-64.5 -45t-84.5 -43.5q-74 -33 -111 -54.5t-71.5 -65.5t-34.5 -101zM1352 1262q0 -35 -39 -82q-10 -14 -88 -110l-190 -230l-179 -222l-207 -258l-235 -294l-97 -121h-14q-10 0 -20.5 9t-10.5 23q0 33 37 82q12 16 88 109l191 231l180 219l539 676q45 1 45 -32 zM182 584q-45 0 -45 37v4q0 41 45 41h170v526q-39 -51 -112 -51q-53 0 -82 28q-25 18 -25 48q0 14 7 25t14.5 17.5t9.5 4.5q25 -35 82 -35q45 0 80.5 28.5t38.5 73.5h34q45 0 45 -47v-618h150q45 0 45 -41v-4q0 -37 -45 -37h-412z" />
<glyph unicode="&#xbe;" horiz-adv-x="1683" d="M1434 -4q-39 0 -39 45v168h-326q-61 0 -61 43v20q2 25 28 60l289 375q29 43 86 43q39 0 54.5 -14.5t15.5 -49.5v-399h96q43 0 43 -37v-4q0 -37 -43 -37h-96v-168q0 -45 -41 -45h-6zM635 791q0 -102 -74 -161t-205 -59q-100 0 -174 45q-96 53 -96 117q0 23 14.5 35 t27.5 14t15 0q18 -61 74.5 -98t136.5 -37q86 0 140.5 41t54.5 106.5t-51.5 103.5t-137.5 38h-65q-45 0 -45 35v6q0 33 45 33h76q72 0 114.5 33.5t42.5 89.5q0 57 -48 93t-126 36q-70 0 -120 -34t-70 -83q-2 -2 -15.5 1t-26.5 15.5t-13 32.5q0 51 71 94q78 51 176 51 q123 0 190.5 -53t67.5 -145q0 -125 -131 -162q152 -43 152 -188zM1393 1262q0 -35 -39 -82q-10 -14 -88 -110l-190 -230l-179 -222l-207 -258l-235 -294l-97 -121h-14q-10 0 -20.5 9t-10.5 23q0 33 37 82q12 16 88 109l191 231l180 219l539 676q45 1 45 -32zM1395 674 l-301 -389h303z" />
<glyph unicode="&#xbf;" horiz-adv-x="999" d="M535 1182q-33 0 -47.5 13t-14.5 46v31q0 33 14.5 46t47.5 13h28q33 0 46.5 -13t13.5 -46v-31q0 -33 -13.5 -46t-46.5 -13h-28zM481 -20q-178 0 -283.5 93t-105.5 230q0 76 34 137.5t68.5 92t100.5 73.5q55 37 81.5 58.5t64.5 63.5t54.5 94t16.5 122q0 29 43 29t43 -35 q-2 -109 -42 -189.5t-80 -116.5t-109 -83q-57 -37 -87 -62.5t-57.5 -71.5t-27.5 -104q0 -106 75.5 -173.5t214.5 -67.5q152 0 235 83t101 205q2 4 20.5 0t36 -19t17.5 -40q0 -37 -24.5 -94.5t-71.5 -104.5q-121 -120 -318 -120z" />
<glyph unicode="&#xc0;" horiz-adv-x="1284" d="M53 0l512 1296q16 39 76 39q61 0 78 -39l512 -1296h-115l-180 459h-592l-182 -459h-109zM377 549h526l-262 670zM723 1470q-4 -6 -44 6.5t-109.5 48.5t-137.5 85q-78 57 -78 94q0 18 12.5 29.5t30.5 11.5q35 0 92 -45q66 -49 124.5 -103.5t86 -88.5t23.5 -38z" />
<glyph unicode="&#xc1;" horiz-adv-x="1284" d="M53 0l512 1296q16 39 76 39q61 0 78 -39l512 -1296h-115l-180 459h-592l-182 -459h-109zM377 549h526l-262 670zM539 1477q-4 4 24.5 37.5t86 88t122.5 103.5q61 45 92 45q18 0 31.5 -11t13.5 -30q0 -35 -78 -94q-68 -49 -138 -85t-110 -48t-44 -6z" />
<glyph unicode="&#xc2;" horiz-adv-x="1284" d="M53 0l512 1296q16 39 76 39q61 0 78 -39l512 -1296h-115l-180 459h-592l-182 -459h-109zM377 549h526l-262 670zM428 1458q-33 0 -33 35t105 156q35 39 69.5 71.5t52 47t19.5 14.5t20.5 -14.5t51 -46t65.5 -68.5q106 -123 107 -160q0 -35 -31 -35q-35 0 -133 127l-82 109 l-82 -111q-92 -125 -129 -125z" />
<glyph unicode="&#xc3;" horiz-adv-x="1284" d="M53 0l512 1296q16 39 76 39q61 0 78 -39l512 -1296h-115l-180 459h-592l-182 -459h-109zM377 549h526l-262 670zM772 1468q-78 0 -158 84q-59 59 -94 60q-51 0 -69 -86q-12 -47 -43 -47q-14 0 -37 14q14 203 151 203q80 0 158 -86q59 -59 96 -60q51 0 70 86q12 47 43 47 q16 0 35 -14q-11 -201 -152 -201z" />
<glyph unicode="&#xc4;" horiz-adv-x="1284" d="M53 0l512 1296q16 39 76 39q61 0 78 -39l512 -1296h-115l-180 459h-592l-182 -459h-109zM377 549h526l-262 670zM805 1466q-78 0 -78 78t76 78q35 0 56.5 -20.5t21.5 -57.5t-20.5 -57.5t-55.5 -20.5zM479 1466q-35 0 -56.5 20.5t-21.5 57.5t20.5 57.5t55.5 20.5 q78 0 78 -78q0 -37 -20.5 -57.5t-55.5 -20.5z" />
<glyph unicode="&#xc5;" horiz-adv-x="1284" d="M61 25l496 1253q-61 23 -98 76t-37 125q0 96 62.5 159.5t158.5 63.5t157.5 -63.5t61.5 -159.5q0 -72 -37 -125.5t-100 -75.5l498 -1253q2 -10 -21.5 -22.5t-54.5 -5.5t-45 46l-166 416h-592l-166 -416q-16 -39 -46 -46t-51.5 6.5t-19.5 21.5zM641.5 1325q63.5 0 104 44 t40.5 109.5t-40.5 110.5t-104 45t-104.5 -45t-41 -110.5t41 -109.5t104.5 -44zM377 549h526l-262 674z" />
<glyph unicode="&#xc6;" horiz-adv-x="1789" d="M1178 0q-61 0 -86 57l-154 402h-596l-164 -416q-16 -39 -46 -46t-51.5 6t-19.5 22l496 1253q23 47 68 47h1026v-92h-912l201 -506h567v-94h-528l213 -539h487v-94h-501zM377 549h526l-262 670z" />
<glyph unicode="&#xc7;" horiz-adv-x="1406" d="M784 -20q-293 0 -473 189t-180 490.5t182.5 494t472.5 192.5q268 0 424 -156q72 -72 72 -125q0 -10 -3 -19.5t-8 -15.5t-11.5 -12t-12.5 -8l-12 -4q-6 -2 -9 -2h-5q-53 113 -171 183t-266 70q-244 0 -396 -167.5t-152 -427.5q0 -258 153.5 -426t398.5 -168 q172 0 289 81.5t158 202.5q2 4 18.5 0t33 -20.5t16.5 -38.5q0 -70 -91 -158q-66 -66 -176.5 -110.5t-251.5 -44.5zM631 -436q-10 -12 -36 -4t-15 28l127 260q12 31 23 42.5t38 11.5h8q20 0 35.5 -13.5t15.5 -31.5v-7q0 -12 -39 -65z" />
<glyph unicode="&#xc8;" horiz-adv-x="1216" d="M193 0v1264q0 27 16 44t43 17h838v-92h-795v-508h625v-90h-625v-541h813v-94h-915zM782 1477q-4 -6 -44 6t-109.5 48t-136.5 85q-78 57 -78 94q0 18 12 29.5t31 11.5q35 0 92 -45q66 -49 124 -103.5t85.5 -88t23.5 -37.5z" />
<glyph unicode="&#xc9;" horiz-adv-x="1216" d="M504 1477q-4 4 24.5 37.5t86 88t122.5 103.5q61 45 92 45q18 0 31.5 -11t13.5 -30q0 -35 -77 -94q-68 -49 -138.5 -85t-110.5 -48t-44 -6zM193 0v1264q0 27 16 44t43 17h838v-92h-795v-508h625v-90h-625v-541h813v-94h-915z" />
<glyph unicode="&#xca;" horiz-adv-x="1216" d="M436 1473q-33 0 -33 34.5t105 155.5q35 39 69.5 71.5t52 47t19.5 14.5t20.5 -14.5t51.5 -46t65 -68.5q106 -123 107 -160q0 -35 -31 -34q-35 0 -133 126l-82 109l-82 -111q-92 -124 -129 -124zM193 0v1264q0 27 16 44t43 17h838v-92h-795v-508h625v-90h-625v-541h813v-94 h-915z" />
<glyph unicode="&#xcb;" horiz-adv-x="1216" d="M809 1473q-78 0 -78 77.5t76 77.5q35 0 56.5 -20.5t21.5 -57.5t-20.5 -57t-55.5 -20zM483.5 1473q-34.5 0 -56 20t-21.5 57t20 57.5t55 20.5q78 0 78 -78q0 -37 -20.5 -57t-55 -20zM193 0v1264q0 27 16 44t43 17h838v-92h-795v-508h625v-90h-625v-541h813v-94h-915z" />
<glyph unicode="&#xcc;" horiz-adv-x="526" d="M213 0v1325h102v-1325h-102zM360 1470q-4 -6 -44 6.5t-109.5 48.5t-136.5 85q-78 57 -78 94q0 18 12 29.5t31 11.5q35 0 92 -45q66 -49 124 -103.5t85.5 -88.5t23.5 -38z" />
<glyph unicode="&#xcd;" horiz-adv-x="526" d="M213 0v1325h102v-1325h-102zM168 1470q-4 4 24.5 38t86 88.5t122.5 103.5q61 45 93 45q18 0 31.5 -11.5t13.5 -29.5q0 -35 -78 -94q-68 -49 -138.5 -85t-110.5 -48.5t-44 -6.5z" />
<glyph unicode="&#xce;" horiz-adv-x="526" d="M213 0v1325h102v-1325h-102zM51 1466q-33 0 -33 35t105 156q35 39 69.5 71.5t52 47t19.5 14.5t20.5 -14.5t51.5 -46t65 -68.5q106 -123 107 -160q0 -35 -31 -35q-35 0 -133 127l-82 109l-82 -111q-92 -125 -129 -125z" />
<glyph unicode="&#xcf;" horiz-adv-x="526" d="M213 0v1325h102v-1325h-102zM428 1473q-78 0 -78 77.5t76 77.5q35 0 56.5 -20.5t21.5 -57.5t-20.5 -57t-55.5 -20zM102.5 1473q-34.5 0 -56 20t-21.5 57t20.5 57.5t54.5 20.5q78 0 78 -78q0 -37 -20.5 -57t-55 -20z" />
<glyph unicode="&#xd0;" horiz-adv-x="1517" d="M340 0q-27 0 -44 17.5t-17 43.5v557h-156q-47 0 -47 39v11q0 41 47 41h156v555q0 27 17 44t44 17h319q340 0 535 -176t195 -483q0 -309 -199 -487.5t-541 -178.5h-309zM381 94h281q297 0 459.5 149.5t162.5 420.5q0 266 -163 417.5t-453 151.5h-287v-524h465q47 0 47 -41 v-11q0 -39 -47 -39h-465v-524z" />
<glyph unicode="&#xd1;" horiz-adv-x="1439" d="M193 0v1262q0 70 55 69h26q41 0 80 -55l799 -1118v1167h96v-1264q0 -29 -14 -48t-39 -19h-8q-27 0 -40 9t-30 34l-829 1161v-1198h-96zM852 1460q-78 0 -158 84q-59 59 -94 60q-51 0 -70 -86q-12 -47 -43 -48q-16 0 -36 15q14 203 151 203q80 0 158 -86q59 -59 96 -60 q51 0 70 86q12 47 43 47q16 0 35 -14q-11 -201 -152 -201z" />
<glyph unicode="&#xd2;" d="M782.5 -20q-290.5 0 -471 190t-180.5 489t182.5 493t473 194t470 -191.5t179.5 -490.5t-181.5 -491.5t-472 -192.5zM784.5 68q241.5 0 394 167.5t152.5 426t-153.5 427t-395 168.5t-394 -167.5t-152.5 -427.5q0 -258 153.5 -426t395 -168zM868 1477q-4 -6 -44 6 t-109.5 48t-136.5 85q-78 57 -78 94q0 18 12 29.5t31 11.5q35 0 92 -45q66 -49 124 -103.5t85.5 -88t23.5 -37.5z" />
<glyph unicode="&#xd3;" d="M686 1477q-4 4 24.5 37.5t86 88t123.5 103.5q61 45 92 45q18 0 31.5 -11t13.5 -30q0 -35 -78 -94q-68 -49 -138.5 -85t-110.5 -48t-44 -6zM782.5 -20q-290.5 0 -471 190t-180.5 489t182.5 493t473 194t470 -191.5t179.5 -490.5t-181.5 -491.5t-472 -192.5zM784.5 68 q241.5 0 394 167.5t152.5 426t-153.5 427t-395 168.5t-394 -167.5t-152.5 -427.5q0 -258 153.5 -426t395 -168z" />
<glyph unicode="&#xd4;" d="M565 1473q-33 0 -33 34.5t105 155.5q35 39 69.5 71.5t52 47t19.5 14.5t20.5 -14.5t51.5 -46t65 -68.5q106 -123 107 -160q0 -35 -31 -34q-35 0 -133 126l-82 109l-82 -111q-92 -124 -129 -124zM782.5 -20q-290.5 0 -471 190t-180.5 489t182.5 493t473 194t470 -191.5 t179.5 -490.5t-181.5 -491.5t-472 -192.5zM784.5 68q241.5 0 394 167.5t152.5 426t-153.5 427t-395 168.5t-394 -167.5t-152.5 -427.5q0 -258 153.5 -426t395 -168z" />
<glyph unicode="&#xd5;" d="M782.5 -20q-290.5 0 -471 190t-180.5 489t182.5 493t473 194t470 -191.5t179.5 -490.5t-181.5 -491.5t-472 -192.5zM784.5 68q241.5 0 394 167.5t152.5 426t-153.5 427t-395 168.5t-394 -167.5t-152.5 -427.5q0 -258 153.5 -426t395 -168zM901 1470q-78 0 -158 84 q-59 59 -94 60q-51 0 -69 -86q-12 -47 -43 -47q-16 0 -37 14q14 203 151 203q80 0 158 -86q59 -59 96 -60q51 0 70 86q12 47 43 48q16 0 35 -15q-11 -201 -152 -201z" />
<glyph unicode="&#xd6;" d="M942 1473q-78 0 -78 77.5t76 77.5q35 0 56.5 -20.5t21.5 -57.5t-20.5 -57t-55.5 -20zM616.5 1473q-34.5 0 -56 20t-21.5 57t20.5 57.5t54.5 20.5q78 0 78 -78q0 -37 -20.5 -57t-55 -20zM782.5 -20q-290.5 0 -471 190t-180.5 489t182.5 493t473 194t470 -191.5 t179.5 -490.5t-181.5 -491.5t-472 -192.5zM784.5 68q241.5 0 394 167.5t152.5 426t-153.5 427t-395 168.5t-394 -167.5t-152.5 -427.5q0 -258 153.5 -426t395 -168z" />
<glyph unicode="&#xd7;" horiz-adv-x="1126" d="M231 186l-6 7q-31 31 2 65l279 285l-279 282q-33 33 -2 64l6 6q31 31 66 -6l270 -285l271 285q35 37 65 6l6 -6q29 -29 -4 -64l-276 -282l276 -285q33 -37 4 -65l-6 -7q-31 -31 -65 7l-271 286l-270 -286q-35 -38 -66 -7z" />
<glyph unicode="&#xd8;" d="M176 -80q-4 -4 -16.5 2t-23.5 20.5t-11 30.5q0 35 39 76l127 146q-160 188 -160 464q0 293 181.5 490t467.5 197q240 0 408 -140l162 187q4 4 16 -2.5t23.5 -20.5t11.5 -31q0 -35 -39 -75l-107 -123q172 -188 172 -477q0 -293 -181 -488.5t-470 -195.5q-246 0 -418 145 l-47 -51l-90 -103zM362 266l758 869q-141 119 -342 118q-244 0 -394.5 -167.5t-150.5 -423.5q0 -236 129 -396zM780 72q246 0 395.5 168t149.5 422q0 248 -141 407q-758 -868 -760 -868q145 -129 356 -129z" />
<glyph unicode="&#xd9;" horiz-adv-x="1353" d="M674 -20q-248 0 -375 136t-127 400v768q0 47 43 47h14q45 0 45 -47v-760q0 -453 403.5 -452.5t403.5 452.5v760q0 47 43 47h19q39 0 39 -47v-764q0 -264 -130 -402t-378 -138zM784 1454q-4 -6 -44 6.5t-109.5 48t-136.5 84.5q-78 57 -78 95q0 18 12 29.5t31 11.5 q35 0 92 -46q66 -49 124 -103t85.5 -88t23.5 -38z" />
<glyph unicode="&#xda;" horiz-adv-x="1353" d="M571 1454q-4 4 25 38t86 88t123 103q61 45 92 46q18 0 31.5 -11.5t13.5 -29.5q0 -35 -78 -95q-68 -49 -138.5 -84.5t-110.5 -48t-44 -6.5zM674 -20q-248 0 -375 136t-127 400v768q0 47 43 47h14q45 0 45 -47v-760q0 -453 403.5 -452.5t403.5 452.5v760q0 47 43 47h19 q39 0 39 -47v-764q0 -264 -130 -402t-378 -138z" />
<glyph unicode="&#xdb;" horiz-adv-x="1353" d="M459 1464q-33 0 -33 35t104 156q35 39 70 71.5t52.5 47t19.5 14.5t20.5 -14.5t51 -46t65.5 -68.5q106 -123 106 -160q0 -35 -30 -35q-35 0 -133 127l-82 109l-82 -111q-92 -125 -129 -125zM674 -20q-248 0 -375 136t-127 400v768q0 47 43 47h14q45 0 45 -47v-760 q0 -453 403.5 -452.5t403.5 452.5v760q0 47 43 47h19q39 0 39 -47v-764q0 -264 -130 -402t-378 -138z" />
<glyph unicode="&#xdc;" horiz-adv-x="1353" d="M836 1466q-78 0 -78 78t76 78q35 0 56 -20.5t21 -57.5t-20 -57.5t-55 -20.5zM510 1466q-35 0 -56.5 20.5t-21.5 57.5t20.5 57.5t55.5 20.5q78 0 78 -78q0 -37 -20.5 -57.5t-55.5 -20.5zM674 -20q-248 0 -375 136t-127 400v768q0 47 43 47h14q45 0 45 -47v-760 q0 -453 403.5 -452.5t403.5 452.5v760q0 47 43 47h19q39 0 39 -47v-764q0 -264 -130 -402t-378 -138z" />
<glyph unicode="&#xdd;" horiz-adv-x="1163" d="M530 0v567l-481 758h113l420 -666l419 635q23 35 51.5 37t46 -15.5t15.5 -27.5l-481 -721v-567h-103zM465 1450q-4 4 24.5 38t86 88t122.5 103q61 45 93 45q18 0 31.5 -11t13.5 -30q0 -35 -78 -94q-68 -49 -138.5 -85t-110.5 -48t-44 -6z" />
<glyph unicode="&#xde;" horiz-adv-x="1191" d="M236 -6q-43 0 -43 47v1243q0 47 43 47h14q45 0 45 -47v-217h299q233 0 359 -104.5t126 -290.5q0 -193 -126 -296.5t-369 -103.5h-289v-231q0 -47 -45 -47h-14zM295 362h297q188 0 284.5 79t96.5 227q0 150 -96.5 228.5t-282.5 78.5h-299v-613z" />
<glyph unicode="&#xdf;" horiz-adv-x="1114" d="M653 -20q-166 0 -243 77q-39 39 -39 70q0 16 9 31.5t19.5 21.5t12.5 4q80 -119 243 -118q111 0 184.5 78.5t73.5 197.5q0 264 -350 346q-86 20 -86 82q0 41 27 61q168 4 252 61.5t84 180.5q0 109 -74 175.5t-199 66.5q-297 0 -297 -369v-946h-98v946q0 225 105.5 341 t291.5 116q164 0 265.5 -91t101.5 -233q0 -287 -344 -311q223 -51 321.5 -158.5t98.5 -267.5q0 -156 -103.5 -259t-255.5 -103z" />
<glyph unicode="&#xe0;" horiz-adv-x="1087" d="M442 -20q-156 0 -246 72.5t-90 193.5q0 164 167 238.5t534 78.5h20v49q0 137 -78.5 212t-218.5 75q-236 0 -329 -184q-4 0 -15.5 3t-26 17.5t-14.5 36.5q0 43 56 94q123 123 336 123q180 0 283.5 -99t103.5 -276v-614h-97v193q-49 -96 -151.5 -154.5t-233.5 -58.5z M451 61q158 0 267 95.5t109 232.5v96h-26q-317 -6 -455.5 -61t-138.5 -178q0 -86 65.5 -135.5t178.5 -49.5zM678 1120q-4 -6 -44 6.5t-109.5 48t-137.5 85.5q-78 57 -78 94q0 18 12.5 29.5t30.5 11.5q35 0 92 -45q66 -49 124.5 -103.5t86 -88.5t23.5 -38z" />
<glyph unicode="&#xe1;" horiz-adv-x="1087" d="M442 -20q-156 0 -246 72.5t-90 193.5q0 164 167 238.5t534 78.5h20v49q0 137 -78.5 212t-218.5 75q-236 0 -329 -184q-4 0 -15.5 3t-26 17.5t-14.5 36.5q0 43 56 94q123 123 336 123q180 0 283.5 -99t103.5 -276v-614h-97v193q-49 -96 -151.5 -154.5t-233.5 -58.5z M451 61q158 0 267 95.5t109 232.5v96h-26q-317 -6 -455.5 -61t-138.5 -178q0 -86 65.5 -135.5t178.5 -49.5zM401 1120q-4 4 25 38t86 88t123 104q61 45 92 45q18 0 31.5 -11.5t13.5 -29.5q0 -35 -78 -94q-68 -49 -138.5 -85t-110.5 -48.5t-44 -6.5z" />
<glyph unicode="&#xe2;" horiz-adv-x="1087" d="M442 -20q-156 0 -246 72.5t-90 193.5q0 164 167 238.5t534 78.5h20v49q0 137 -78.5 212t-218.5 75q-236 0 -329 -184q-4 0 -15.5 3t-26 17.5t-14.5 36.5q0 43 56 94q123 123 336 123q180 0 283.5 -99t103.5 -276v-614h-97v193q-49 -96 -151.5 -154.5t-233.5 -58.5z M451 61q158 0 267 95.5t109 232.5v96h-26q-317 -6 -455.5 -61t-138.5 -178q0 -86 65.5 -135.5t178.5 -49.5zM326 1116q-33 0 -33 35t104 156q35 39 70 71.5t52.5 47t19.5 14.5t20.5 -14.5t51 -46t65.5 -68.5q106 -123 106 -160q0 -35 -30 -35q-35 0 -134 127l-81 109 l-82 -111q-92 -125 -129 -125z" />
<glyph unicode="&#xe3;" horiz-adv-x="1087" d="M442 -20q-156 0 -246 72.5t-90 193.5q0 164 167 238.5t534 78.5h20v49q0 137 -78.5 212t-218.5 75q-236 0 -329 -184q-4 0 -15.5 3t-26 17.5t-14.5 36.5q0 43 56 94q123 123 336 123q180 0 283.5 -99t103.5 -276v-614h-97v193q-49 -96 -151.5 -154.5t-233.5 -58.5z M451 61q158 0 267 95.5t109 232.5v96h-26q-317 -6 -455.5 -61t-138.5 -178q0 -86 65.5 -135.5t178.5 -49.5zM662 1114q-78 0 -158 84q-59 59 -94 59q-51 0 -70 -86q-12 -47 -43 -47q-14 0 -37 15q14 203 152 202q80 0 157 -86q59 -59 97 -59q51 0 69 86q12 47 43 47 q16 0 35 -14q-10 -201 -151 -201z" />
<glyph unicode="&#xe4;" horiz-adv-x="1087" d="M442 -20q-156 0 -246 72.5t-90 193.5q0 164 167 238.5t534 78.5h20v49q0 137 -78.5 212t-218.5 75q-236 0 -329 -184q-4 0 -15.5 3t-26 17.5t-14.5 36.5q0 43 56 94q123 123 336 123q180 0 283.5 -99t103.5 -276v-614h-97v193q-49 -96 -151.5 -154.5t-233.5 -58.5z M451 61q158 0 267 95.5t109 232.5v96h-26q-317 -6 -455.5 -61t-138.5 -178q0 -86 65.5 -135.5t178.5 -49.5zM705 1116q-78 0 -78 78t75 78q35 0 56.5 -20.5t21.5 -57.5t-20 -57.5t-55 -20.5zM379 1116q-35 0 -56.5 20.5t-21.5 57.5t20.5 57.5t55.5 20.5q78 0 78 -78 q0 -37 -20.5 -57.5t-55.5 -20.5z" />
<glyph unicode="&#xe5;" horiz-adv-x="1087" d="M442 -20q-156 0 -246 72.5t-90 193.5q0 164 167 238.5t534 78.5h20v49q0 137 -78.5 212t-218.5 75q-236 0 -329 -184q-4 0 -15.5 3t-26 17.5t-14.5 36.5q0 43 56 94q123 123 336 123q180 0 283.5 -99t103.5 -276v-614h-97v193q-49 -96 -151.5 -154.5t-233.5 -58.5z M451 61q158 0 267 95.5t109 232.5v96h-26q-317 -6 -455.5 -61t-138.5 -178q0 -86 65.5 -135.5t178.5 -49.5zM541 1114q-96 0 -157.5 62.5t-61.5 159t63.5 160t157.5 63.5q96 0 157.5 -63.5t61.5 -160.5q0 -94 -63.5 -157.5t-157.5 -63.5zM540.5 1182q63.5 0 104.5 44 t41 109.5t-41 110.5t-104.5 45t-104.5 -45t-41 -110.5t41 -109.5t104.5 -44z" />
<glyph unicode="&#xe6;" horiz-adv-x="1837" d="M442 -20q-156 0 -246 72.5t-90 193.5q0 164 166 238.5t535 80.5h20v43q0 139 -77.5 215t-219.5 76q-236 0 -329 -184q-4 0 -15.5 3t-26 17.5t-14.5 36.5q0 43 56 94q123 123 336 123q143 0 234 -68.5t120 -195.5q51 123 156.5 193.5t244.5 70.5q197 0 320 -132t123 -343 v-8q0 -23 -9.5 -30t-33.5 -7h-781q2 -178 113 -289.5t283 -111.5q242 0 342 194q2 2 16 -2t27.5 -19.5t13.5 -35.5q0 -43 -61 -105q-121 -121 -338 -120q-160 0 -273.5 76.5t-163.5 211.5q-41 -131 -157.5 -209.5t-270.5 -78.5zM451 61q160 0 268 92.5t108 235.5v98h-24 q-319 -6 -457.5 -61t-138.5 -180q0 -86 65.5 -135.5t178.5 -49.5zM1292 903q-147 0 -250.5 -98t-126.5 -252h717q-8 158 -101.5 254t-238.5 96z" />
<glyph unicode="&#xe7;" horiz-adv-x="1110" d="M600 -20q-215 0 -354.5 144t-139.5 363q0 217 139.5 359.5t354.5 142.5q211 0 336 -125q74 -74 74 -137q0 -20 -15.5 -32.5t-31 -15.5t-17.5 -1q-86 225 -346 225q-172 0 -283.5 -118.5t-111.5 -297.5q0 -180 110.5 -299.5t284.5 -119.5q260 0 346 223q2 4 17.5 1 t31 -16.5t15.5 -33.5q0 -61 -76 -140q-123 -122 -334 -122zM471 -436q-10 -12 -35.5 -4t-15.5 28l127 260q12 31 23.5 42.5t37.5 11.5h8q20 0 36 -13.5t16 -31.5v-7q0 -12 -39 -65z" />
<glyph unicode="&#xe8;" horiz-adv-x="1136" d="M602 -20q-221 0 -358.5 141t-137.5 360q0 217 137.5 362.5t346.5 145.5q199 0 321.5 -130t122.5 -343v-10q0 -20 -9 -27.5t-34 -7.5h-788q4 -180 114.5 -291.5t284.5 -111.5q246 0 346 194q4 2 17.5 -2t27 -19.5t13.5 -35.5q0 -43 -62 -105q-121 -120 -342 -120zM590 903 q-150 0 -255.5 -97t-127.5 -251h725q-6 156 -100.5 252t-241.5 96zM688 1120q-4 -6 -44 6.5t-109.5 48t-137.5 85.5q-78 57 -78 94q0 18 12.5 29.5t30.5 11.5q35 0 93 -45q66 -49 124 -103.5t85.5 -88.5t23.5 -38z" />
<glyph unicode="&#xe9;" horiz-adv-x="1136" d="M465 1120q-4 4 24.5 38t86 88t122.5 104q61 45 93 45q18 0 31.5 -11.5t13.5 -29.5q0 -35 -78 -94q-68 -49 -138.5 -85t-110.5 -48.5t-44 -6.5zM602 -20q-221 0 -358.5 141t-137.5 360q0 217 137.5 362.5t346.5 145.5q199 0 321.5 -130t122.5 -343v-10q0 -20 -9 -27.5 t-34 -7.5h-788q4 -180 114.5 -291.5t284.5 -111.5q246 0 346 194q4 2 17.5 -2t27 -19.5t13.5 -35.5q0 -43 -62 -105q-121 -120 -342 -120zM590 903q-150 0 -255.5 -97t-127.5 -251h725q-6 156 -100.5 252t-241.5 96z" />
<glyph unicode="&#xea;" horiz-adv-x="1136" d="M602 -20q-221 0 -358.5 141t-137.5 360q0 217 137.5 362.5t346.5 145.5q199 0 321.5 -130t122.5 -343v-10q0 -20 -9 -27.5t-34 -7.5h-788q4 -180 114.5 -291.5t284.5 -111.5q246 0 346 194q4 2 17.5 -2t27 -19.5t13.5 -35.5q0 -43 -62 -105q-121 -120 -342 -120zM590 903 q-150 0 -255.5 -97t-127.5 -251h725q-6 156 -100.5 252t-241.5 96zM371 1116q-33 0 -33 35t104 156q35 39 70 71.5t52.5 47t19.5 14.5t20.5 -14.5t51 -46t65.5 -68.5q106 -123 106 -160q0 -35 -30 -35q-35 0 -133 127l-82 109l-82 -111q-92 -125 -129 -125z" />
<glyph unicode="&#xeb;" horiz-adv-x="1136" d="M602 -20q-221 0 -358.5 141t-137.5 360q0 217 137.5 362.5t346.5 145.5q199 0 321.5 -130t122.5 -343v-10q0 -20 -9 -27.5t-34 -7.5h-788q4 -180 114.5 -291.5t284.5 -111.5q246 0 346 194q4 2 17.5 -2t27 -19.5t13.5 -35.5q0 -43 -62 -105q-121 -120 -342 -120zM590 903 q-150 0 -255.5 -97t-127.5 -251h725q-6 156 -100.5 252t-241.5 96zM748 1116q-78 0 -78 78t75 78q35 0 56.5 -20.5t21.5 -57.5t-20 -57.5t-55 -20.5zM422 1116q-35 0 -56.5 20.5t-21.5 57.5t20.5 57.5t55.5 20.5q78 0 78 -78q0 -37 -20.5 -57.5t-55.5 -20.5z" />
<glyph unicode="&#xec;" horiz-adv-x="462" d="M182 0v928q0 47 43 47h13q43 0 43 -47v-928h-99zM338 1120q-4 -6 -44 6.5t-109.5 48t-137.5 85.5q-78 57 -78 94q0 18 12.5 29.5t30.5 11.5q35 0 92 -45q66 -49 124.5 -103.5t86 -88.5t23.5 -38z" />
<glyph unicode="&#xed;" horiz-adv-x="462" d="M139 1120q-4 4 25 38t86 88t123 104q61 45 92 45q18 0 31.5 -11.5t13.5 -29.5q0 -35 -78 -94q-68 -49 -138.5 -85t-110.5 -48.5t-44 -6.5zM182 0v928q0 47 43 47h13q43 0 43 -47v-928h-99z" />
<glyph unicode="&#xee;" horiz-adv-x="462" d="M25 1110q-33 0 -33 35t104 155q35 39 70 72t52.5 47.5t19.5 14.5t20 -14.5t51 -46.5t66 -68q106 -123 106 -160q0 -35 -30 -35q-35 0 -134 127l-81 109l-82 -111q-92 -125 -129 -125zM182 0v928q0 47 43 47h13q43 0 43 -47v-928h-99z" />
<glyph unicode="&#xef;" horiz-adv-x="462" d="M401 1116q-78 0 -77.5 78t75.5 78q35 0 56.5 -20.5t21.5 -57.5t-20.5 -57.5t-55.5 -20.5zM76 1116q-35 0 -56.5 20.5t-21.5 57.5t20.5 57.5t55.5 20.5q78 0 78 -78q0 -37 -20.5 -57.5t-55.5 -20.5zM182 0v928q0 47 43 47h13q43 0 43 -47v-928h-99z" />
<glyph unicode="&#xf0;" horiz-adv-x="1193" d="M584 -20q-211 0 -339 120.5t-128 329.5q0 203 130 322.5t343 119.5q125 0 229.5 -59t153.5 -143q-31 317 -279 499l-268 -155q-41 -23 -57 10l-4 8q-23 31 20 58l229 127q-178 100 -387 106q-2 2 -3 20.5t20.5 40t56.5 21.5q82 0 195.5 -34t218.5 -103l233 135 q43 25 62 -10l4 -4q18 -35 -23 -60l-207 -115q289 -238 289 -657q0 -270 -132 -423.5t-357 -153.5zM584 66q193 0 290 134t99 363q-37 88 -144.5 155.5t-232.5 67.5q-180 0 -279.5 -92t-99.5 -262q0 -172 99.5 -269t267.5 -97z" />
<glyph unicode="&#xf1;" horiz-adv-x="1169" d="M172 0v965q0 10 33 10q63 0 63 -98v-89q51 92 141.5 146.5t206.5 54.5q188 0 289 -115.5t101 -316.5v-557h-99v551q0 162 -76.5 254t-218.5 92q-119 0 -208 -60.5t-134 -164.5v-672h-98zM700 1114q-78 0 -157 84q-59 59 -94 59q-51 0 -70 -86q-12 -47 -43 -47 q-16 0 -37 15q14 203 152 202q80 0 157 -86q59 -59 97 -59q51 0 69 86q12 47 43 47q16 0 35 -14q-11 -201 -152 -201z" />
<glyph unicode="&#xf2;" horiz-adv-x="1204" d="M602 -20q-217 0 -356.5 144t-139.5 361t139.5 360.5t356.5 143.5q215 0 354.5 -144.5t139.5 -363.5q0 -215 -139.5 -358t-354.5 -143zM602 66q170 0 282.5 118.5t112.5 296.5q0 180 -112.5 301t-282.5 121q-172 0 -284.5 -119.5t-112.5 -298t112.5 -299t284.5 -120.5z M696 1120q-4 -6 -44 6.5t-109.5 48t-136.5 85.5q-78 57 -78 94q0 18 12 29.5t31 11.5q35 0 92 -45q66 -49 124 -103.5t85.5 -88.5t23.5 -38z" />
<glyph unicode="&#xf3;" horiz-adv-x="1204" d="M506 1120q-4 4 24.5 38t86 88t122.5 104q61 45 92 45q18 0 32 -11.5t14 -29.5q0 -35 -78 -94q-68 -49 -138.5 -85t-110.5 -48.5t-44 -6.5zM602 -20q-217 0 -356.5 144t-139.5 361t139.5 360.5t356.5 143.5q215 0 354.5 -144.5t139.5 -363.5q0 -215 -139.5 -358 t-354.5 -143zM602 66q170 0 282.5 118.5t112.5 296.5q0 180 -112.5 301t-282.5 121q-172 0 -284.5 -119.5t-112.5 -298t112.5 -299t284.5 -120.5z" />
<glyph unicode="&#xf4;" horiz-adv-x="1204" d="M389 1116q-33 0 -33 35t105 156q35 39 69.5 71.5t52 47t19.5 14.5t20.5 -14.5t51.5 -46t65 -68.5q106 -123 107 -160q0 -35 -31 -35q-35 0 -133 127l-82 109l-82 -111q-92 -125 -129 -125zM602 -20q-217 0 -356.5 144t-139.5 361t139.5 360.5t356.5 143.5 q215 0 354.5 -144.5t139.5 -363.5q0 -215 -139.5 -358t-354.5 -143zM602 66q170 0 282.5 118.5t112.5 296.5q0 180 -112.5 301t-282.5 121q-172 0 -284.5 -119.5t-112.5 -298t112.5 -299t284.5 -120.5z" />
<glyph unicode="&#xf5;" horiz-adv-x="1204" d="M602 -20q-217 0 -356.5 144t-139.5 361t139.5 360.5t356.5 143.5q215 0 354.5 -144.5t139.5 -363.5q0 -215 -139.5 -358t-354.5 -143zM602 66q170 0 282.5 118.5t112.5 296.5q0 180 -112.5 301t-282.5 121q-172 0 -284.5 -119.5t-112.5 -298t112.5 -299t284.5 -120.5z M727 1114q-78 0 -158 84q-59 59 -94 59q-51 0 -69 -86q-12 -47 -44 -47q-14 0 -36 15q14 203 151 202q80 0 158 -86q59 -59 96 -59q51 0 70 86q12 47 43 47q16 0 35 -14q-11 -201 -152 -201z" />
<glyph unicode="&#xf6;" horiz-adv-x="1204" d="M766 1116q-78 0 -78 78t76 78q35 0 56.5 -20.5t21.5 -57.5t-20.5 -57.5t-55.5 -20.5zM440.5 1116q-34.5 0 -56.5 20.5t-22 57.5t20.5 57.5t55.5 20.5q78 0 78 -78q0 -37 -20.5 -57.5t-55 -20.5zM602 -20q-217 0 -356.5 144t-139.5 361t139.5 360.5t356.5 143.5 q215 0 354.5 -144.5t139.5 -363.5q0 -215 -139.5 -358t-354.5 -143zM602 66q170 0 282.5 118.5t112.5 296.5q0 180 -112.5 301t-282.5 121q-172 0 -284.5 -119.5t-112.5 -298t112.5 -299t284.5 -120.5z" />
<glyph unicode="&#xf7;" horiz-adv-x="1290" d="M1026 500h-764q-47 0 -47 41v10q0 41 47 41h764q47 0 47 -41v-10q0 -41 -47 -41zM637 768q-72 0 -72 72v14q0 72 72 72h14q72 0 72 -72v-14q0 -72 -72 -72h-14zM637 166q-72 0 -72 72v14q0 72 72 72h14q72 0 72 -72v-14q0 -72 -72 -72h-14z" />
<glyph unicode="&#xf8;" horiz-adv-x="1204" d="M162 -66q-4 -4 -15.5 1.5t-21.5 17.5t-10 27q0 31 35 67l90 98q-123 143 -123 338q0 211 142 358.5t349 147.5q176 0 305 -106l134 149q4 2 14 -3t20.5 -16.5t10.5 -25.5q0 -29 -35 -69l-84 -93q123 -141 123 -340q0 -213 -141.5 -359t-348.5 -146q-178 0 -307 106z M307 215l543 596q-106 90 -244 90q-170 0 -279.5 -119.5t-109.5 -296.5q0 -157 90 -270zM608 68q168 0 278.5 119.5t110.5 295.5q0 156 -94 273l-543 -598q111 -90 248 -90z" />
<glyph unicode="&#xf9;" horiz-adv-x="1169" d="M551 -20q-188 0 -287.5 115.5t-99.5 316.5v557h98v-551q0 -162 77 -254t218 -92q119 0 208 60.5t134 166.5v670h98v-965q0 -10 -34 -10q-61 0 -62 98v88q-51 -90 -142 -145t-208 -55zM686 1114q-4 -6 -44 6.5t-109.5 48t-137.5 84.5q-78 57 -78 95q0 18 12.5 29.5 t30.5 11.5q35 0 93 -46q66 -49 124 -103t85.5 -88t23.5 -38z" />
<glyph unicode="&#xfa;" horiz-adv-x="1169" d="M551 -20q-188 0 -287.5 115.5t-99.5 316.5v557h98v-551q0 -162 77 -254t218 -92q119 0 208 60.5t134 166.5v670h98v-965q0 -10 -34 -10q-61 0 -62 98v88q-51 -90 -142 -145t-208 -55zM498 1114q-4 4 24.5 38t86 88t122.5 103q61 45 92 46q18 0 31.5 -11.5t13.5 -29.5 q0 -35 -77 -95q-68 -49 -138.5 -84.5t-110.5 -48t-44 -6.5z" />
<glyph unicode="&#xfb;" horiz-adv-x="1169" d="M551 -20q-188 0 -287.5 115.5t-99.5 316.5v557h98v-551q0 -162 77 -254t218 -92q119 0 208 60.5t134 166.5v670h98v-965q0 -10 -34 -10q-61 0 -62 98v88q-51 -90 -142 -145t-208 -55zM375 1110q-33 0 -33 35t104 155q35 39 70 72t52.5 47.5t19.5 14.5t20.5 -14.5 t51 -46.5t65.5 -68q106 -123 106 -160q0 -35 -30 -35q-35 0 -133 127l-82 109l-82 -111q-92 -125 -129 -125z" />
<glyph unicode="&#xfc;" horiz-adv-x="1169" d="M551 -20q-188 0 -287.5 115.5t-99.5 316.5v557h98v-551q0 -162 77 -254t218 -92q119 0 208 60.5t134 166.5v670h98v-965q0 -10 -34 -10q-61 0 -62 98v88q-51 -90 -142 -145t-208 -55zM752 1110q-78 0 -78 78t76 78q35 0 56 -20.5t21 -57.5t-20 -57.5t-55 -20.5zM426 1110 q-35 0 -56.5 20.5t-21.5 57.5t20.5 57.5t55.5 20.5q78 0 78 -78q0 -37 -20.5 -57.5t-55.5 -20.5z" />
<glyph unicode="&#xfd;" horiz-adv-x="999" d="M373 -395q-12 0 -25.5 5t-21 11t-4.5 10l172 422q-45 0 -62 39l-381 877h103l366 -854l326 854h104l-508 -1299q-22 -65 -69 -65zM408 1094q-4 4 24.5 37.5t85.5 88t123 103.5q61 45 92 45q18 0 31.5 -11t13.5 -30q0 -35 -78 -94q-68 -49 -138 -85t-110 -48t-44 -6z" />
<glyph unicode="&#xfe;" horiz-adv-x="1234" d="M217 -395q-45 0 -45 47v1726q0 10 33 11q66 0 65 -97v-522q127 219 383 219q197 0 329 -140t132 -362q0 -225 -131 -366t-336 -141q-137 0 -236.5 63t-140.5 154v-545q0 -47 -43 -47h-10zM639 66q168 0 272.5 116.5t104.5 304.5q0 180 -106.5 298t-266.5 118 q-135 0 -231.5 -70.5t-143.5 -193.5v-223q0 -145 107.5 -247.5t263.5 -102.5z" />
<glyph unicode="&#xff;" horiz-adv-x="999" d="M373 -395q-12 0 -25.5 5t-21 11t-4.5 10l172 422q-45 0 -62 39l-381 877h103l366 -854l326 854h104l-508 -1299q-22 -65 -69 -65zM668 1116q-78 0 -78 78t76 78q35 0 56 -20.5t21 -57.5t-20 -57.5t-55 -20.5zM342 1116q-35 0 -56.5 20.5t-21.5 57.5t20.5 57.5t55.5 20.5 q78 0 78 -78q0 -37 -20.5 -57.5t-55.5 -20.5z" />
<glyph unicode="&#x152;" horiz-adv-x="2144" d="M776 -18q-287 0 -466 189t-179 488t182.5 491.5t466.5 192.5q88 0 164 -18h1071v-92h-862q119 -82 189.5 -213t82.5 -295h443v-90h-441q-6 -174 -77.5 -314.5t-196.5 -226.5h881v-94h-1094q-76 -18 -164 -18zM780 70q238 0 390.5 166.5t152.5 425.5q0 256 -153.5 424.5 t-391.5 168.5q-240 0 -391 -167.5t-151 -426t152 -425t392 -166.5z" />
<glyph unicode="&#x153;" horiz-adv-x="2009" d="M598 -20q-213 0 -352.5 144t-139.5 361t139.5 360.5t352.5 143.5q154 0 270.5 -83t167.5 -222q47 139 163 222t267 83q195 0 318 -131t123 -342v-10q0 -20 -9.5 -27.5t-33.5 -7.5h-781q4 -180 113 -291.5t283 -111.5q242 0 342 194q4 2 17 -2t26.5 -19.5t13.5 -35.5 q0 -43 -61 -105q-121 -121 -338 -120q-162 0 -280 79.5t-167 219.5q-49 -135 -164.5 -217t-269.5 -82zM598 66q168 0 278.5 118.5t110.5 298.5q0 178 -111.5 299t-277.5 121q-168 0 -280.5 -119.5t-112.5 -298t111.5 -299t281.5 -120.5zM1466.5 903q-145.5 0 -251 -97 t-128.5 -251h717q-6 156 -99 252t-238.5 96z" />
<glyph unicode="&#x178;" horiz-adv-x="1163" d="M530 0v567l-481 758h113l420 -666l419 635q23 35 51.5 37t46 -15.5t15.5 -27.5l-481 -721v-567h-103zM743 1473q-78 0 -77.5 77.5t75.5 77.5q35 0 56.5 -20.5t21.5 -57.5t-20.5 -57t-55.5 -20zM418 1473q-35 0 -56.5 20t-21.5 57t20.5 57.5t55.5 20.5q78 0 78 -78 q0 -37 -20.5 -57t-55.5 -20z" />
<glyph unicode="&#x2c6;" horiz-adv-x="1085" d="M330 1116q-33 0 -33 35t104 156q35 39 70 71.5t52.5 47t19.5 14.5t20.5 -14.5t51 -46t65.5 -68.5q106 -123 106 -160q0 -35 -30 -35q-35 0 -133 127l-82 109l-82 -111q-92 -125 -129 -125z" />
<glyph unicode="&#x2dc;" horiz-adv-x="1085" d="M666 1114q-78 0 -158 84q-59 59 -94 59q-51 0 -70 -86q-12 -47 -43 -47q-14 0 -37 15q14 203 152 202q80 0 157 -86q59 -59 97 -59q51 0 69 86q12 47 43 47q16 0 35 -14q-10 -201 -151 -201z" />
<glyph unicode="&#x2000;" horiz-adv-x="897" />
<glyph unicode="&#x2001;" horiz-adv-x="1796" />
<glyph unicode="&#x2002;" horiz-adv-x="897" />
<glyph unicode="&#x2003;" horiz-adv-x="1796" />
<glyph unicode="&#x2004;" horiz-adv-x="598" />
<glyph unicode="&#x2005;" horiz-adv-x="448" />
<glyph unicode="&#x2006;" horiz-adv-x="299" />
<glyph unicode="&#x2007;" horiz-adv-x="299" />
<glyph unicode="&#x2008;" horiz-adv-x="223" />
<glyph unicode="&#x2009;" horiz-adv-x="358" />
<glyph unicode="&#x200a;" horiz-adv-x="98" />
<glyph unicode="&#x2010;" horiz-adv-x="780" d="M123 463v90h532v-90h-532z" />
<glyph unicode="&#x2011;" horiz-adv-x="780" d="M123 463v90h532v-90h-532z" />
<glyph unicode="&#x2012;" horiz-adv-x="780" d="M123 463v90h532v-90h-532z" />
<glyph unicode="&#x2013;" horiz-adv-x="1087" d="M164 465q-47 0 -47 39v8q0 41 47 41h760q47 0 47 -41v-8q0 -39 -47 -39h-760z" />
<glyph unicode="&#x2014;" horiz-adv-x="1423" d="M164 465q-47 0 -47 39v8q0 41 47 41h1093q49 0 50 -41v-8q0 -39 -50 -39h-1093z" />
<glyph unicode="&#x2018;" horiz-adv-x="454" d="M168 899q-20 0 -33.5 14.5t-13.5 38.5v6q0 33 24 74l158 305q6 14 32.5 7t18.5 -29l-118 -361q-12 -31 -24.5 -43t-37.5 -12h-6z" />
<glyph unicode="&#x2019;" horiz-adv-x="454" d="M152 907q-8 -14 -34 -6t-18 31l121 358q8 23 13.5 32t16.5 16.5t30 7.5h8q18 0 31.5 -14.5t13.5 -39.5v-6q0 -35 -25 -74z" />
<glyph unicode="&#x201a;" horiz-adv-x="442" d="M117 -274q-4 -8 -19.5 -9.5t-27 8t-4.5 23.5l120 358q8 23 13.5 32t16.5 16.5t30 7.5h8q45 0 45 -53v-5q0 -35 -25 -75z" />
<glyph unicode="&#x201c;" horiz-adv-x="737" d="M451 899q-18 0 -33 14.5t-15 38.5v6q0 33 27 74l156 305q8 14 33.5 7t17.5 -29l-119 -361q-6 -16 -10 -23t-11.5 -16.5t-15.5 -12.5t-22 -3h-8zM168 899q-18 0 -32.5 14.5t-14.5 38.5v6q0 33 24 74l158 305q6 14 32.5 7t18.5 -29l-118 -361q-12 -31 -23.5 -43t-36.5 -12 h-8z" />
<glyph unicode="&#x201d;" horiz-adv-x="737" d="M434 907q-4 -8 -18.5 -8t-25.5 9.5t-7 23.5l121 358q8 23 13 32t16.5 16.5t29.5 7.5h8q18 0 31.5 -14.5t13.5 -39.5v-6q0 -35 -22 -74zM150 907q-6 -14 -33 -6t-19 31l121 358q8 23 13.5 32t16.5 16.5t30 7.5h8q18 0 31.5 -14.5t13.5 -39.5v-6q0 -35 -25 -74z" />
<glyph unicode="&#x201e;" horiz-adv-x="727" d="M401 -274q-8 -16 -33.5 -8t-17.5 30l121 358q8 23 13 32t16.5 16.5t29.5 7.5h9q45 0 45 -53v-5q0 -35 -25 -75zM115 -274q-4 -8 -18.5 -9.5t-26 8t-4.5 23.5l118 358q8 23 13.5 32t16.5 16.5t30 7.5h8q45 0 45 -53v-5q0 -35 -23 -75z" />
<glyph unicode="&#x2022;" horiz-adv-x="675" d="M338 328q-76 0 -127 52t-51 128t51 128t127 52t127 -52t51 -128t-51 -128t-127 -52z" />
<glyph unicode="&#x2026;" horiz-adv-x="1236" d="M1001 -10q-70 0 -69 71v15q0 72 69 71h17q72 0 72 -71v-15q0 -72 -72 -71h-17zM610 -10q-70 0 -69 71v15q0 72 69 71h15q72 0 71 -71v-15q0 -72 -71 -71h-15zM219 -10q-72 0 -72 71v15q0 72 72 71h14q72 0 72 -71v-15q0 -72 -72 -71h-14z" />
<glyph unicode="&#x202f;" horiz-adv-x="358" />
<glyph unicode="&#x2039;" horiz-adv-x="679" d="M508 170q-45 0 -205 135q-53 47 -96 90t-64.5 68.5t-21.5 32t20.5 31t63.5 67.5t96 88q158 139 207 139q16 0 27.5 -10t11.5 -27q0 -39 -178 -174l-156 -116q102 -72 160 -119q98 -78 136 -113t38 -57q0 -14 -11.5 -24.5t-27.5 -10.5z" />
<glyph unicode="&#x203a;" horiz-adv-x="679" d="M172 170q-37 0 -37 37q0 41 176 174l156 117l-160 116q-172 133 -172 172q0 35 37 35q45 0 205 -135q53 -47 96 -90t64.5 -68.5t21.5 -32t-20.5 -31t-63.5 -67.5t-96 -90q-158 -137 -207 -137z" />
<glyph unicode="&#x205f;" horiz-adv-x="448" />
<glyph unicode="&#x20ac;" horiz-adv-x="1341" d="M823 -20q-207 0 -341 126.5t-169 356.5h-159q-49 0 -50 39v8q0 39 50 39h149q-2 23 -2 69v93q0 49 2 75h-149q-49 0 -50 39v9q0 41 50 40h161q37 217 170 344.5t330 127.5q213 0 334 -125q70 -72 70 -136q0 -20 -14.5 -34.5t-29 -18.5t-18.5 -2q-96 229 -348 230 q-152 0 -256 -103.5t-139 -282.5h473q47 0 47 -40v-9q0 -39 -47 -39h-486q-2 -25 -2 -75v-97q0 -43 2 -65h486q47 0 47 -39v-8q0 -39 -47 -39h-473q35 -182 141.5 -288.5t263.5 -106.5q258 0 348 241q2 4 17.5 0t30 -19.5t14.5 -37.5q0 -70 -76 -143q-125 -129 -330 -129z " />
<glyph unicode="&#x2122;" horiz-adv-x="1398" d="M727 700q-33 0 -33 39v547q0 45 41 45h37q31 0 47 -35l164 -344l162 344q16 35 47 35h35q41 0 41 -45v-547q0 -39 -35 -39h-10q-33 0 -33 39v484l-164 -353q-10 -23 -45 -22q-33 0 -43 22l-166 351v-482q0 -39 -31 -39h-14zM322 700q-35 0 -35 39v514h-185q-37 0 -36 33 v6q0 35 36 35h451q37 0 37 -35v-6q0 -33 -37 -33h-184v-514q0 -39 -37 -39h-10z" />
<glyph unicode="&#xe000;" horiz-adv-x="975" d="M0 975h975v-975h-975v975z" />
<glyph unicode="&#xfb01;" horiz-adv-x="1099" d="M260 0v881h-207v88h207v104q0 166 69.5 251t200.5 85q109 0 162 -53q23 -23 23 -51q0 -14 -6.5 -26.5t-13.5 -18t-9 -3.5q-55 66 -156 66q-176 0 -176 -256v-98h262v-88h-260v-881h-96zM819 0v928q0 47 43 47h12q43 0 44 -47v-928h-99zM868 1231q-68 0 -67 67q0 70 71 70 q66 0 66 -70q0 -67 -70 -67z" />
<glyph unicode="&#xfb02;" horiz-adv-x="1099" d="M260 0v881h-207v88h207v104q0 166 69.5 251t200.5 85q109 0 162 -53q23 -23 23 -51q0 -14 -6.5 -26.5t-13.5 -18t-9 -3.5q-55 66 -156 66q-176 0 -176 -256v-98h262v-88h-260v-881h-96zM819 0v1378q0 10 35 11q63 0 64 -97v-1292h-99z" />
<glyph unicode="&#xfb03;" horiz-adv-x="1859" d="M1579 0v928q0 47 43 47h13q43 0 43 -47v-928h-99zM1626 1231q-66 0 -65 67q0 70 69 70q68 0 68 -70q0 -67 -72 -67zM958 0v881h-203v88h203v104q0 166 69.5 251t200.5 85q109 0 162 -53q23 -23 23 -51q0 -14 -6.5 -26.5t-13.5 -18t-9 -3.5q-55 66 -156 66 q-176 0 -176 -256v-98h256v-88h-254v-881h-96zM260 0v881h-203v88h203v104q0 166 69.5 251t200.5 85q109 0 162 -53q23 -23 23 -51q0 -14 -6.5 -26.5t-13.5 -18t-9 -3.5q-55 66 -156 66q-176 0 -176 -256v-98h256v-88h-254v-881h-96z" />
<glyph unicode="&#xfb04;" horiz-adv-x="1859" d="M1579 0v1378q0 10 33 11q66 0 66 -97v-1292h-99zM958 0v881h-203v88h203v104q0 166 69.5 251t200.5 85q109 0 162 -53q23 -23 23 -51q0 -14 -6.5 -26.5t-13.5 -18t-9 -3.5q-55 66 -156 66q-176 0 -176 -256v-98h256v-88h-254v-881h-96zM260 0v881h-203v88h203v104 q0 166 69.5 251t200.5 85q109 0 162 -53q23 -23 23 -51q0 -14 -6.5 -26.5t-13.5 -18t-9 -3.5q-55 66 -156 66q-176 0 -176 -256v-98h256v-88h-254v-881h-96z" />
</font>
</defs>
</svg>
